<?xml version="1.0" standalone="no"?>
<!DOCTYPE svg PUBLIC "-//W3C//DTD SVG 1.1//EN" "http://www.w3.org/Graphics/SVG/1.1/DTD/svg11.dtd" >
<svg xmlns="http://www.w3.org/2000/svg" xmlns:xlink="http://www.w3.org/1999/xlink" version="1.1">
<metadata>
Created by FontForge 20200314 at Thu Oct 29 09:18:02 2020
 By Jason Otero
Copyright (c) Font Awesome
</metadata>
<!-- Font Awesome Pro 6.0.0-alpha1 by @fontawesome - https://fontawesome.com License - https://fontawesome.com/license (Commercial License) --><defs>
<font id="FontAwesome6Pro-Thin" horiz-adv-x="512" >
  <font-face 
    font-family="Font Awesome 6 Pro Thin"
    font-weight="100"
    font-stretch="normal"
    units-per-em="512"
    panose-1="2 0 2 3 0 0 0 0 0 0"
    ascent="448"
    descent="-64"
    bbox="-4512 -72 2080 463.75"
    underline-thickness="25"
    underline-position="-50"
    unicode-range="U+0020-F8FF"
  />
    <missing-glyph />
    <glyph glyph-name="caravan-simple" unicode="&#xe000;" horiz-adv-x="640" 
d="M632 48c4 0 8 -4 8 -8s-4 -8 -8 -8h-344c0 -53 -43 -96 -96 -96s-96 43 -96 96h-32c-35 0 -64 29 -64 64v256c0 35 29 64 64 64h352c88 0 160 -72 160 -160v-192c0 -6 -2 -11 -5 -16h61zM192 -48c44 0 80 36 80 80s-36 80 -80 80s-80 -36 -80 -80s36 -80 80 -80zM560 64
v192c0 79 -65 144 -144 144h-352c-26 0 -48 -22 -48 -48v-256c0 -26 22 -48 48 -48h34c7 45 46 80 94 80s87 -35 94 -80h258c9 0 16 7 16 16zM224 320c18 0 32 -14 32 -32v-64c0 -18 -14 -32 -32 -32h-128c-18 0 -32 14 -32 32v64c0 18 14 32 32 32h128zM240 224v64
c0 9 -7 16 -16 16h-128c-9 0 -16 -7 -16 -16v-64c0 -9 7 -16 16 -16h128c9 0 16 7 16 16zM416 320c18 0 32 -14 32 -32v-64c0 -18 -14 -32 -32 -32h-64c-18 0 -32 14 -32 32v64c0 18 14 32 32 32h64zM432 224v64c0 9 -7 16 -16 16h-64c-9 0 -16 -7 -16 -16v-64
c0 -9 7 -16 16 -16h64c9 0 16 7 16 16z" />
    <glyph glyph-name="cat-space" unicode="&#xe001;" horiz-adv-x="640" 
d="M440 304c9 0 16 -7 16 -16s-7 -16 -16 -16s-16 7 -16 16s7 16 16 16zM504 288c0 9 7 16 16 16s16 -7 16 -16s-7 -16 -16 -16s-16 7 -16 16zM480 448c88 0 160 -72 160 -160c0 -80 -59 -146 -136 -158v-162c0 -18 -14 -32 -32 -32h-32c-18 0 -32 14 -32 32v113l-101 -65
h21c22 0 40 -18 40 -40v-32c0 -4 -4 -8 -8 -8h-176c-49 0 -88 39 -88 88v224c0 49 -39 88 -88 88c-4 0 -8 4 -8 8s4 8 8 8c57 0 104 -47 104 -104v-98c31 72 102 122 184 122h26c-1 5 -2 11 -2 16c0 88 72 160 160 160zM480 432c-31 0 -59 -10 -82 -26l56 -54h52l56 54
c-23 16 -51 26 -82 26zM560 382l-45 -44c-2 -1 -4 -2 -6 -2h-58c-2 0 -4 1 -6 2l-45 44v-110c0 -44 36 -80 80 -80s80 36 80 80v110zM488 -32v161c-3 0 -5 -1 -8 -1c-77 0 -142 55 -157 128h-27c-101 0 -184 -83 -184 -184v-48c0 -40 32 -72 72 -72h168v24
c0 13 -11 24 -24 24h-48c-4 0 -8 4 -8 8v24c0 44 -36 80 -80 80c-4 0 -8 4 -8 8s4 8 8 8c53 0 96 -43 96 -96v-9l124 80c5 3 12 -1 12 -7v-128c0 -9 7 -16 16 -16h32c9 0 16 7 16 16zM480 144c79 0 144 65 144 144c0 42 -19 80 -48 107v-123c0 -53 -43 -96 -96 -96
s-96 43 -96 96v123c-29 -27 -48 -65 -48 -107c0 -79 65 -144 144 -144zM168 376c-4 0 -8 4 -8 8s4 8 8 8h48v48c0 4 4 8 8 8s8 -4 8 -8v-48h48c4 0 8 -4 8 -8s-4 -8 -8 -8h-48v-48c0 -4 -4 -8 -8 -8s-8 4 -8 8v48h-48z" />
    <glyph glyph-name="coffee-pot" unicode="&#xe002;" 
d="M431 270c50 -40 81 -100 81 -167c0 -51 -19 -85 -50 -117c-10 -12 -25 -18 -41 -18h-266c-16 0 -30 6 -41 18c-31 33 -50 66 -50 117c0 67 31 127 81 167l-44 130h-29c-31 0 -56 -25 -56 -56v-112c0 -4 -4 -8 -8 -8s-8 4 -8 8v112c0 40 32 72 72 72h408zM118 400l42 -125
l1 -3h254l1 3l42 125h-340zM153 256c-35 -29 -59 -69 -69 -112h408c-10 43 -33 83 -68 112h-271zM451 -3c27 29 45 58 45 106c0 9 -1 17 -2 25h-412c-1 -8 -2 -16 -2 -25c0 -48 18 -77 45 -106c8 -8 19 -13 30 -13h266c11 0 22 5 30 13z" />
    <glyph glyph-name="comet" unicode="&#xe003;" 
d="M505 441c6 -6 8 -15 6 -23c-8 -27 -30 -97 -57 -175l10 -3c7 -2 13 -7 15 -13c3 -7 3 -14 -1 -20c-22 -43 -81 -150 -139 -210c-2 -2 -2 -3 -3 -3c-37 -37 -87 -58 -139 -58c-53 0 -102 20 -139 58c-77 76 -77 201 0 278c0 1 1 1 2 2c61 60 168 118 211 140
c6 4 13 4 20 1c6 -3 11 -8 13 -15l3 -10c82 29 154 51 174 57c9 3 18 0 24 -6zM496 422c0 3 0 6 -2 8s-5 2 -8 2v0c-21 -7 -97 -30 -181 -60l-8 -2l-8 26c-1 2 -2 4 -5 4c-1 1 -1 1 -2 1c-2 0 -3 0 -4 -1c-33 -17 -145 -78 -206 -137l-2 -1c-72 -72 -72 -187 -1 -257
c34 -34 79 -53 128 -53c48 0 93 19 128 53l2 3c57 59 115 164 137 206c1 2 1 5 0 7c0 2 -2 3 -4 4l-26 8l2 8c29 80 51 153 60 181zM301 179c8 -1 15 -7 18 -15c2 -8 0 -17 -6 -23l-44 -43l10 -62c2 -8 -2 -16 -9 -21s-16 -6 -23 -2l-55 29l-55 -29c-3 -2 -7 -3 -10 -3
c-5 0 -9 2 -13 4c-7 5 -11 14 -9 22l10 62l-44 43c-6 6 -9 15 -6 23c2 8 10 14 18 15l61 9l28 56c4 8 11 12 20 12c8 0 16 -4 20 -12l27 -56zM302 152c2 2 2 5 2 7c-1 2 -3 4 -6 4l-69 11l-31 63c-2 2 -4 3 -6 3c-3 0 -5 -1 -6 -3l-31 -63l-70 -11c-2 0 -4 -2 -5 -4
s0 -5 2 -7l50 -49l-12 -69c0 -4 2 -6 3 -7c1 0 3 -2 6 0l63 33l62 -33c2 -1 5 -1 7 1c2 1 3 3 2 6l-11 69z" />
    <glyph glyph-name="fan-table" unicode="&#xe004;" horiz-adv-x="448" 
d="M224 236c7 0 12 -5 12 -12s-5 -12 -12 -12s-12 5 -12 12s5 12 12 12zM381 178c-6 -5 -14 -7 -21 -6l-92 15c2 -20 -2 -39 -12 -57c-19 -31 -52 -49 -87 -49c-17 0 -34 4 -50 13c-6 4 -11 11 -13 19c-1 5 -1 13 6 20l59 72c-48 23 -64 75 -53 115c7 26 24 48 47 61
c7 4 14 5 21 2s14 -9 16 -16l33 -86c28 19 66 23 98 8c35 -17 57 -52 57 -91c0 -8 -3 -15 -9 -20zM249 207l113 -19c3 -1 6 0 9 2c2 2 3 5 3 8c0 33 -19 63 -48 76c-30 14 -65 9 -90 -12l-9 -7l-40 107c0 2 -3 5 -6 6c-1 0 -2 1 -3 1c-2 0 -4 -1 -5 -2
c-20 -11 -34 -30 -40 -51c-7 -29 0 -82 53 -100l11 -4l-73 -89c-2 -2 -2 -5 -2 -8c1 -3 3 -6 5 -7v0c40 -23 92 -10 115 30c10 18 13 38 9 57zM448 224c0 -121 -96 -219 -216 -224v-48h144c4 0 8 -4 8 -8s-4 -8 -8 -8h-304c-4 0 -8 4 -8 8s4 8 8 8h144v48
c-120 5 -216 103 -216 224c0 124 100 224 224 224s224 -100 224 -224zM224 16c115 0 208 93 208 208s-93 208 -208 208s-208 -93 -208 -208s93 -208 208 -208z" />
    <glyph glyph-name="faucet" unicode="&#xe005;" 
d="M352 192c89 0 161 -72 160 -161c0 -17 -15 -31 -32 -31h-64c-18 0 -32 15 -32 32c0 18 -14 32 -32 32h-13c-20 -38 -64 -64 -115 -64s-95 26 -115 64h-77c-18 0 -32 14 -32 32v64c0 18 14 32 32 32h103c21 18 50 30 81 31v1v46l-134 -14h-2c-9 0 -16 7 -16 17v62
c0 10 7 17 16 17h2l134 -15v39c0 4 4 8 8 8s8 -4 8 -8v-39l134 15h2c9 0 16 -8 16 -17v-62c0 -10 -7 -17 -16 -17h-2l-134 14v-46v-1c31 -1 60 -13 81 -31h39zM368 336l-136 -15v-35l136 -14v63v1zM80 273l136 13v35l-136 15v-63zM480 16c9 0 16 7 16 15
c0 38 -14 75 -42 102c-27 28 -63 43 -102 43h-45l-4 4c-21 18 -49 28 -79 28s-58 -10 -79 -28l-4 -4h-109c-9 0 -16 -7 -16 -16v-64c0 -9 7 -16 16 -16h86l5 -8c18 -34 58 -56 101 -56s83 22 101 56l5 8h22c13 0 25 -5 34 -14s14 -21 14 -34c0 -4 2 -8 5 -11s7 -5 11 -5h64z
" />
    <glyph glyph-name="faucet-drip" unicode="&#xe006;" 
d="M441 29c3 4 11 4 14 0c4 -7 28 -42 28 -58c0 -19 -16 -35 -35 -35s-35 16 -35 35c0 16 24 51 28 58zM448 -48c10 0 19 8 19 19c0 6 -10 24 -19 38c-9 -14 -19 -32 -19 -38c0 -11 9 -19 19 -19zM352 256c89 0 161 -72 160 -161c0 -17 -15 -31 -32 -31h-64
c-18 0 -32 15 -32 32c0 18 -14 32 -32 32h-13c-20 -38 -64 -64 -115 -64s-95 26 -115 64h-77c-18 0 -32 14 -32 32v64c0 18 14 32 32 32h103c21 18 50 30 81 31v1v46l-134 -14h-2c-9 0 -16 7 -16 17v62c0 10 7 17 16 17h2l134 -15v39c0 4 4 8 8 8s8 -4 8 -8v-39l134 15h2
c9 0 16 -8 16 -17v-62c0 -10 -7 -17 -16 -17h-2l-134 14v-46v-1c31 -1 60 -13 81 -31h39zM232 385v-35l136 -14v63v1zM216 350v35l-136 15v-63zM480 80c9 0 16 7 16 15c0 38 -14 75 -42 102c-27 28 -63 43 -102 43h-45l-4 4c-21 18 -49 28 -79 28s-58 -10 -79 -28l-4 -4
h-109c-9 0 -16 -7 -16 -16v-64c0 -9 7 -16 16 -16h86l5 -8c18 -34 58 -56 101 -56s83 22 101 56l5 8h22c13 0 25 -5 34 -14s14 -21 14 -34c0 -4 2 -8 5 -11s7 -5 11 -5h64z" />
    <glyph glyph-name="galaxy" unicode="&#xe008;" 
d="M507 179c5 -22 6 -45 4 -67c-1 -15 -14 -26 -29 -26c-12 0 -22 7 -27 18c-13 30 -37 53 -67 64c5 -25 5 -51 0 -76c-15 -73 -73 -133 -145 -151c-16 -3 -31 -5 -47 -5c-6 0 -13 0 -20 1c-13 1 -23 11 -25 24c-3 14 4 26 17 32c30 13 53 37 64 66c-12 -2 -24 -3 -37 -3
s-26 1 -39 4c-73 14 -133 73 -151 145c-5 22 -6 45 -4 67c1 15 14 26 29 26c12 0 22 -7 27 -18c13 -30 37 -53 67 -64c-5 25 -5 51 0 76c15 73 73 133 145 151c16 3 31 5 47 5c6 0 13 0 20 -1c13 -1 23 -11 25 -24c3 -14 -4 -26 -17 -32c-30 -13 -53 -37 -64 -67
c12 3 24 4 37 4s26 -1 39 -4c73 -15 133 -73 151 -145zM495 114c2 20 1 41 -4 61c-16 67 -71 120 -138 133c-12 3 -24 4 -36 4c-20 0 -40 -3 -59 -10c7 46 37 85 80 104c12 5 10 24 -4 25c-6 1 -12 1 -18 1c-15 0 -29 -2 -43 -5c-67 -16 -120 -71 -133 -138
c-7 -32 -5 -65 6 -95c-46 7 -85 37 -104 80c-2 5 -7 8 -12 8c-6 0 -12 -4 -13 -12c-2 -20 -1 -41 4 -61c16 -67 71 -120 138 -133c12 -3 24 -4 36 -4c20 0 40 3 59 10c-7 -46 -37 -85 -80 -104c-12 -5 -10 -24 4 -25c6 -1 12 -1 18 -1c15 0 29 2 43 5c67 16 120 71 133 138
c7 32 5 65 -6 95c46 -7 86 -37 104 -80c2 -5 7 -8 12 -8c6 0 12 4 13 12zM256 240c26 0 48 -22 48 -48s-22 -48 -48 -48s-48 22 -48 48s22 48 48 48zM256 160c18 0 32 14 32 32s-14 32 -32 32s-32 -14 -32 -32s14 -32 32 -32z" />
    <glyph glyph-name="garage" unicode="&#xe009;" horiz-adv-x="640" 
d="M376 33c4 0 8 -3 8 -8s-4 -8 -8 -8h-112c-4 0 -8 4 -8 8s4 8 8 8h112zM614 336c16 -6 26 -21 26 -37v-354c0 -5 -4 -8 -8 -8s-8 3 -8 8v354c0 9 -6 18 -15 22l-289 111l-289 -111c-9 -4 -15 -13 -15 -22v-354c0 -5 -4 -8 -8 -8s-8 3 -8 8v354c0 16 10 31 26 37l291 112
c2 1 4 1 6 0zM520 257c13 0 24 -11 24 -24v-288c0 -5 -4 -8 -8 -8s-8 3 -8 8v168h-416v-168c0 -5 -4 -8 -8 -8s-8 3 -8 8v288c0 13 11 24 24 24h400zM528 129v104c0 4 -4 8 -8 8h-400c-4 0 -8 -4 -8 -8v-104h416z" />
    <glyph glyph-name="garage-car" unicode="&#xe00a;" horiz-adv-x="640" 
d="M224 65c9 0 16 -7 16 -16s-7 -16 -16 -16s-16 8 -16 16s7 16 16 16zM452 108c16 -7 28 -24 28 -43v-104c0 -14 -11 -24 -24 -24h-16c-13 0 -24 10 -24 24v24h-192v-24c0 -14 -11 -24 -24 -24h-16c-13 0 -24 10 -24 24v104c0 19 12 36 28 43l31 76c6 15 21 25 37 25h128
c16 0 31 -10 37 -25zM234 178l-27 -66l1 1h224l1 -1l-27 66c-4 9 -12 15 -22 15h-128c-10 0 -18 -6 -22 -15zM208 -39v24h-32v-24c0 -5 4 -8 8 -8h16c4 0 8 3 8 8zM464 -39v24h-32v-24c0 -5 4 -8 8 -8h16c4 0 8 3 8 8zM464 1v64c0 17 -14 32 -32 32h-224
c-18 0 -32 -15 -32 -32v-64h288zM614 336c16 -6 26 -21 26 -37v-354c0 -5 -4 -8 -8 -8s-8 3 -8 8v354c0 9 -6 18 -15 22l-289 111l-289 -111c-9 -4 -15 -13 -15 -22v-354c0 -5 -4 -8 -8 -8s-8 3 -8 8v354c0 16 10 31 26 37l291 112c2 1 4 1 6 0zM520 257c13 0 24 -11 24 -24
v-288c0 -5 -4 -8 -8 -8s-8 3 -8 8v288c0 4 -4 8 -8 8h-400c-4 0 -8 -4 -8 -8v-288c0 -5 -4 -8 -8 -8s-8 3 -8 8v288c0 13 11 24 24 24h400zM416 65c9 0 16 -7 16 -16s-7 -16 -16 -16s-16 8 -16 16s7 16 16 16z" />
    <glyph glyph-name="garage-open" unicode="&#xe00b;" horiz-adv-x="640" 
d="M614 336c16 -6 26 -21 26 -37v-354c0 -5 -4 -8 -8 -8s-8 3 -8 8v354c0 9 -6 18 -15 22l-289 111l-289 -111c-9 -4 -15 -13 -15 -22v-354c0 -5 -4 -8 -8 -8s-8 3 -8 8v354c0 16 10 31 26 37l291 112c2 1 4 1 6 0zM520 257c13 0 24 -11 24 -24v-288c0 -5 -4 -8 -8 -8
s-8 3 -8 8v216h-416v-216c0 -5 -4 -8 -8 -8s-8 3 -8 8v288c0 13 11 24 24 24h400zM528 177v56c0 4 -4 8 -8 8h-400c-4 0 -8 -4 -8 -8v-56h416zM452 108c16 -7 28 -24 28 -43v-104c0 -14 -11 -24 -24 -24h-16c-13 0 -24 10 -24 24v24h-192v-24c0 -14 -11 -24 -24 -24h-16
c-13 0 -24 10 -24 24v104c0 19 12 36 28 43l6 16c2 3 5 5 8 5c6 0 9 -6 7 -12l-2 -5l1 1h224l1 -1l-2 5c-2 6 1 12 7 12c3 0 6 -2 8 -5zM208 -39v24h-32v-24c0 -5 4 -8 8 -8h16c4 0 8 3 8 8zM464 -39v24h-32v-24c0 -5 4 -8 8 -8h16c4 0 8 3 8 8zM464 1v64
c0 17 -14 32 -32 32h-224c-18 0 -32 -15 -32 -32v-64h288zM224 65c9 0 16 -7 16 -16s-7 -16 -16 -16s-16 8 -16 16s7 16 16 16zM416 65c9 0 16 -7 16 -16s-7 -16 -16 -16s-16 8 -16 16s7 16 16 16z" />
    <glyph glyph-name="heat" unicode="&#xe00c;" horiz-adv-x="448" 
d="M48 278c0 -48 16 -95 46 -133c32 -41 50 -92 50 -144v-25c0 -4 -4 -8 -8 -8s-8 4 -8 8v25c0 48 -16 96 -46 134c-32 40 -50 91 -50 143v66c0 4 4 8 8 8s8 -4 8 -8v-66zM204 188l21 -31c26 -38 39 -83 39 -129v-52c0 -4 -4 -8 -8 -8s-8 4 -8 8v52c0 43 -13 84 -36 120
l-21 31c-26 38 -39 83 -39 129v100c0 4 4 8 8 8s8 -4 8 -8v-100c0 -43 13 -84 36 -120zM350 145c32 -41 50 -92 50 -144v-25c0 -4 -4 -8 -8 -8s-8 4 -8 8v25c0 48 -16 96 -46 134c-32 40 -50 91 -50 143v66c0 4 4 8 8 8s8 -4 8 -8v-66c0 -48 16 -95 46 -133z" />
    <glyph glyph-name="house" unicode="&#xe00d;" horiz-adv-x="576" 
d="M224 232c0 13 11 24 24 24h80c13 0 24 -11 24 -24v-80c0 -13 -11 -24 -24 -24h-80c-13 0 -24 11 -24 24v80zM336 232c0 4 -4 8 -8 8h-80c-4 0 -8 -4 -8 -8v-80c0 -4 4 -8 8 -8h80c4 0 8 4 8 8v80zM573 198c4 -3 4 -8 1 -11c-2 -2 -4 -3 -6 -3s-4 1 -5 2l-51 44v-230
c0 -35 -29 -64 -64 -64h-320c-35 0 -64 29 -64 64v230l-51 -44c-3 -3 -8 -3 -11 1c-3 3 -3 8 1 11l280 248c3 3 7 3 10 0l91 -80v34c0 9 7 16 16 16h96c9 0 16 -7 16 -16v-148zM496 0v244l-208 185l-208 -185v-244c0 -26 22 -48 48 -48h320c26 0 48 22 48 48zM496 266v134
h-96v-49z" />
    <glyph glyph-name="house-day" unicode="&#xe00e;" horiz-adv-x="640" 
d="M637 142c4 -3 4 -8 1 -11c-2 -2 -4 -3 -6 -3s-4 1 -5 2l-51 46v-200c0 -22 -18 -40 -40 -40h-272c-22 0 -40 18 -40 40v200l-51 -46c-3 -3 -8 -2 -11 1s-3 8 1 11l232 209c3 2 7 2 10 0zM560 -24v214l-160 144l-160 -144v-214c0 -13 11 -24 24 -24h272c13 0 24 11 24 24z
M344 144c0 14 11 24 24 24h64c13 0 24 -10 24 -24v-64c0 -13 -11 -24 -24 -24h-64c-13 0 -24 11 -24 24v64zM440 144c0 5 -4 8 -8 8h-64c-4 0 -8 -3 -8 -8v-64c0 -4 4 -8 8 -8h64c4 0 8 4 8 8v64zM131 182c4 2 9 -1 10 -5c2 -4 0 -8 -5 -10l-65 -22c-2 0 -4 -1 -6 -1
c-5 0 -10 2 -14 6c-5 5 -7 13 -4 20l19 59l-55 28c-7 3 -11 9 -11 17c0 7 4 14 11 17l55 28l-20 59c-2 7 0 14 5 20c5 5 13 6 20 4l59 -19l28 55c6 13 28 13 34 0l28 -55l59 19c6 2 14 0 19 -5c6 -5 7 -12 5 -19l-22 -66c-1 -4 -6 -6 -10 -5c-4 2 -6 6 -5 10l22 66
c0 1 0 2 -1 3s-2 1 -3 1l-72 -24l-34 68c-1 2 -5 2 -6 0l-34 -68l-72 24c-1 0 -3 0 -3 -1c-1 -1 -2 -2 -1 -3l24 -72l-68 -34c-1 -1 -2 -2 -2 -3s1 -3 2 -3l68 -34l-24 -72c-1 -2 0 -3 1 -4c0 -1 2 -1 3 0zM176 321c-26 0 -48 -21 -48 -48s22 -49 48 -49c4 0 8 -4 8 -8
s-4 -8 -8 -8c-35 0 -64 30 -64 65s29 64 64 64s64 -29 64 -64c0 -5 -4 -8 -8 -8s-8 3 -8 8c0 26 -22 48 -48 48z" />
    <glyph glyph-name="house-person-leave" unicode="&#xe00f;" horiz-adv-x="640" 
d="M291 48c7 0 10 -8 5 -13v-1c-2 -1 -4 -2 -6 -2h-186c-22 0 -40 18 -40 40v199l-51 -45c-3 -3 -8 -3 -11 1c-3 3 -3 8 1 11l232 208c3 3 7 3 10 0l109 -97c3 -4 3 -10 -2 -12v-1c-3 -1 -7 -1 -9 1l-103 92l-160 -143v-214c0 -13 11 -24 24 -24h187zM144 264h64
c13 0 24 -11 24 -24v-64c0 -13 -11 -24 -24 -24h-64c-13 0 -24 11 -24 24v64c0 13 11 24 24 24zM216 240c0 4 -4 8 -8 8h-64c-4 0 -8 -4 -8 -8v-64c0 -4 4 -8 8 -8h64c4 0 8 4 8 8v64zM459 54c4 -2 6 -7 4 -11l-6 -15c-3 -9 -8 -17 -15 -24l-57 -57c-7 -7 -17 -11 -26 -11
c-10 0 -20 4 -28 12c-14 15 -15 38 0 54l48 48c5 6 9 12 11 19l13 31c1 4 6 6 10 4c4 -1 6 -6 5 -10l-13 -31c-3 -9 -8 -17 -15 -24l-48 -48c-8 -9 -8 -23 1 -32c8 -9 22 -9 31 -1l57 58c5 5 9 11 12 18l6 15c1 4 6 6 10 5zM524 344c-29 0 -52 23 -52 52s23 52 52 52
s52 -23 52 -52s-23 -52 -52 -52zM524 432c-20 0 -36 -16 -36 -36s16 -36 36 -36s36 16 36 36s-16 36 -36 36zM619 213c19 -10 26 -34 17 -53c-5 -10 -13 -17 -23 -20c-9 -3 -20 -2 -29 2l-23 12c-13 7 -24 18 -31 32l-9 -38l41 -45c8 -9 14 -20 17 -31l21 -87
c5 -21 -7 -42 -28 -48c-4 0 -7 -1 -10 -1c-7 0 -14 2 -20 6c-9 5 -15 14 -18 24l-17 72c-2 8 -7 17 -13 23l-58 64c-16 18 -22 42 -16 65l11 44l-11 -4c-6 -2 -10 -6 -12 -11l-7 -14c-4 -9 -12 -16 -22 -19c-10 -4 -21 -3 -30 2c-19 9 -27 33 -17 52l6 14c11 22 30 39 53 49
l12 5c29 12 49 20 80 20h1c48 0 91 -32 107 -80l8 -25l20 -10v0zM622 167c5 11 1 25 -11 31l-22 12c-2 1 -4 2 -4 4l-10 29c-13 41 -50 69 -91 69c-31 0 -46 -7 -87 -24c-19 -8 -35 -23 -44 -41l-7 -14c-5 -11 -1 -25 10 -31c12 -6 25 -1 31 10l6 14c4 8 12 15 21 19
c0 0 27 11 28 11c6 0 9 -5 8 -10l-14 -60c-5 -17 0 -36 12 -50l58 -64c8 -9 14 -19 16 -31l18 -71c3 -13 15 -20 28 -17c12 3 20 16 17 28l-22 87c-2 9 -6 17 -12 24l-45 49c-1 2 -2 4 -1 7l16 67c2 8 13 8 16 1l5 -16c4 -14 14 -25 27 -32l22 -12c12 -5 25 0 31 11z" />
    <glyph glyph-name="house-night" unicode="&#xe010;" horiz-adv-x="640" 
d="M637 142c4 -3 4 -8 1 -11c-2 -2 -4 -3 -6 -3s-4 1 -5 2l-51 45v-199c0 -22 -18 -40 -40 -40h-272c-22 0 -40 18 -40 40v199l-51 -45c-3 -3 -8 -3 -11 1c-3 3 -3 8 1 11l232 208c3 3 7 3 10 0zM560 -24v214l-160 143l-160 -143v-214c0 -13 11 -24 24 -24h272
c13 0 24 11 24 24zM344 144c0 13 11 24 24 24h64c13 0 24 -11 24 -24v-64c0 -13 -11 -24 -24 -24h-64c-13 0 -24 11 -24 24v64zM440 144c0 4 -4 8 -8 8h-64c-4 0 -8 -4 -8 -8v-64c0 -4 4 -8 8 -8h64c4 0 8 4 8 8v64zM111 224c-61 0 -111 50 -111 112s50 112 111 112
c7 0 14 -1 20 -2c5 -1 9 -5 10 -10c1 -6 -1 -11 -6 -14c-31 -17 -44 -55 -32 -89s47 -54 82 -47c5 1 10 -1 13 -6c3 -4 3 -10 -1 -15c-21 -26 -52 -41 -86 -41zM111 432c-52 0 -95 -43 -95 -96s43 -96 95 -96c26 0 50 11 68 29c-39 -3 -77 20 -91 58c-14 39 -1 81 32 104
c-3 1 -6 1 -9 1zM200 376c-4 0 -8 4 -8 8s4 8 8 8h48v48c0 4 4 8 8 8s8 -4 8 -8v-48h48c4 0 8 -4 8 -8s-4 -8 -8 -8h-48v-48c0 -4 -4 -8 -8 -8s-8 4 -8 8v48h-48zM152 72c4 0 8 -4 8 -8s-4 -8 -8 -8h-48v-48c0 -4 -4 -8 -8 -8s-8 4 -8 8v48h-48c-4 0 -8 4 -8 8s4 8 8 8h48
v48c0 4 4 8 8 8s8 -4 8 -8v-48h48z" />
    <glyph glyph-name="house-person-return" unicode="&#xe011;" horiz-adv-x="640" 
d="M436 344c-29 0 -52 23 -52 52s23 52 52 52s52 -23 52 -52s-23 -52 -52 -52zM436 432c-20 0 -36 -16 -36 -36s16 -36 36 -36s36 16 36 36s-16 36 -36 36zM312 48c4 0 8 -4 8 -8s-4 -8 -8 -8h-208c-22 0 -40 18 -40 40v199l-51 -45c-3 -3 -8 -3 -11 1c-3 3 -3 8 1 11
l232 208c3 3 7 3 10 0l117 -104c3 -3 3 -9 0 -12v0c-3 -3 -8 -3 -11 0l-111 99l-160 -143v-214c0 -13 11 -24 24 -24h208zM540 190c6 -23 0 -47 -16 -65l-58 -64c-6 -6 -11 -15 -13 -23l-18 -72c-2 -10 -8 -19 -17 -24c-7 -4 -13 -6 -20 -6c-3 0 -7 0 -10 1
c-21 5 -33 27 -28 48l21 87c3 11 9 22 17 31l41 45l-9 38c-7 -14 -18 -25 -31 -32l-23 -12c-9 -5 -20 -5 -30 -2c-9 3 -17 10 -22 20c-9 19 -2 43 17 53v0l20 10l8 25c16 48 59 80 107 80h1c31 0 51 -8 80 -20l12 -5c23 -10 42 -27 53 -49l6 -14c10 -19 2 -43 -17 -52
c-9 -5 -20 -6 -30 -2c-10 3 -18 10 -22 19l-7 14c-2 5 -6 9 -12 11l-11 4zM454 72l58 64c12 14 17 33 12 50l-14 60c-1 5 2 10 8 10c1 0 28 -11 28 -11c9 -4 17 -11 21 -19l6 -14c6 -11 19 -16 31 -10c11 6 15 20 10 31l-7 14c-9 18 -25 33 -44 41c-41 17 -56 24 -87 24
c-41 0 -78 -28 -91 -69l-10 -29c0 -2 -2 -3 -4 -4l-22 -12c-12 -6 -16 -20 -11 -31c6 -11 19 -16 31 -11l22 12c13 7 23 18 27 32l5 16c3 7 14 7 16 -1l16 -67c1 -3 0 -5 -1 -7l-44 -49c-7 -7 -11 -15 -13 -24l-22 -87c-3 -12 5 -25 17 -28c13 -3 25 4 28 17l18 71
c2 12 8 22 16 31zM629 2c15 -16 14 -39 0 -54c-8 -8 -18 -12 -28 -12c-9 0 -19 4 -26 11l-57 57c-7 7 -12 15 -15 24l-6 15c-2 4 0 9 4 11c4 1 9 -1 10 -5l6 -15c3 -7 7 -13 12 -18l57 -58c9 -8 22 -8 31 1s9 23 1 32l-48 48c-7 7 -12 15 -15 24l-13 31c-1 4 1 9 5 10
c4 2 9 0 10 -4l13 -31c2 -7 6 -13 11 -19zM144 264h64c13 0 24 -11 24 -24v-64c0 -13 -11 -24 -24 -24h-64c-13 0 -24 11 -24 24v64c0 13 11 24 24 24zM216 240c0 4 -4 8 -8 8h-64c-4 0 -8 -4 -8 -8v-64c0 -4 4 -8 8 -8h64c4 0 8 4 8 8v64z" />
    <glyph glyph-name="house-signal" unicode="&#xe012;" horiz-adv-x="640" 
d="M8 222c154 0 280 -126 280 -280c0 -4 -4 -8 -8 -8s-8 4 -8 8c0 146 -118 264 -264 264c-4 0 -8 4 -8 8s4 8 8 8zM8 126c101 0 184 -83 184 -184c0 -4 -4 -8 -8 -8s-8 4 -8 8c0 93 -75 168 -168 168c-4 0 -8 4 -8 8s4 8 8 8zM8 30c49 0 88 -39 88 -88c0 -4 -4 -8 -8 -8
s-8 4 -8 8c0 40 -32 72 -72 72c-4 0 -8 4 -8 8s4 8 8 8zM432 150h-64c-13 0 -24 11 -24 24v64c0 13 11 24 24 24h64c13 0 24 -11 24 -24v-64c0 -13 -11 -24 -24 -24zM360 174c0 -4 4 -8 8 -8h64c4 0 8 4 8 8v64c0 4 -4 8 -8 8h-64c-4 0 -8 -4 -8 -8v-64zM637 236
c4 -3 4 -8 1 -11c-2 -2 -4 -3 -6 -3s-4 1 -5 2l-51 45v-199c0 -22 -18 -40 -40 -40h-208c-4 0 -8 4 -8 8v0c0 4 4 8 8 8h208c13 0 24 11 24 24v214l-160 143l-160 -143v-102c0 -4 -4 -8 -8 -8v0c-4 0 -8 4 -8 8v87l-51 -45c-3 -3 -8 -3 -11 1c-3 3 -3 8 1 11l232 208
c3 3 7 3 10 0z" />
    <glyph glyph-name="lamp-desk" unicode="&#xe014;" 
d="M510 371c4 -12 2 -25 -7 -34l-200 -200c-6 -6 -13 -9 -22 -9c-17 0 -32 14 -32 32v127l-7 7l-105 -104l61 -238h178c4 0 8 -4 8 -8s-4 -8 -8 -8h-368c-4 0 -8 4 -8 8s4 8 8 8h174l-62 238c0 3 0 6 2 8l108 108l-17 17c-28 29 -28 75 1 103c14 14 32 22 52 22
c19 0 37 -7 51 -21l36 -36h127c13 0 25 -8 30 -20zM491 348c10 10 3 27 -11 27h-133l-41 41c-11 11 -26 16 -40 16c-15 0 -30 -6 -41 -17c-22 -22 -23 -58 -1 -81l41 -41v-133c0 -10 8 -16 16 -16c4 0 8 1 11 5zM455 255c3 3 8 2 11 -1c20 -22 18 -56 -3 -77
c-10 -11 -25 -16 -39 -16s-27 4 -37 13c-4 3 -4 8 -1 12c3 3 8 3 11 0c16 -13 40 -13 55 2s16 39 2 55c-3 4 -2 9 1 12z" />
    <glyph glyph-name="lamp-floor" unicode="&#xe015;" horiz-adv-x="384" 
d="M381 269c5 -10 4 -22 -2 -31s-16 -14 -27 -14h-152v-272h112c4 0 8 -4 8 -8s-4 -8 -8 -8h-240c-4 0 -8 4 -8 8s4 8 8 8h112v272h-152c-11 0 -21 5 -27 14s-7 21 -2 31l68 160c5 11 17 19 30 19h182c13 0 25 -8 30 -19zM365 247c3 5 4 10 2 15l-69 160c-2 6 -8 10 -15 10
h-182c-7 0 -13 -4 -15 -10l-69 -160c-2 -5 -1 -10 2 -15c3 -4 8 -7 13 -7h320c5 0 10 3 13 7z" />
    <glyph glyph-name="light-ceiling" unicode="&#xe016;" 
d="M264 288c127 -4 230 -98 248 -220c2 -19 -13 -36 -33 -36h-446c-20 0 -35 17 -33 36c18 122 121 216 248 220v152c0 4 4 8 8 8s8 -4 8 -8v-152zM492 54c2 2 5 6 4 12c-17 117 -120 206 -240 206s-223 -89 -240 -206c-1 -6 2 -10 4 -12c3 -4 8 -6 13 -6h446c5 0 10 2 13 6
zM312 8c4 0 8 -4 8 -8c0 -35 -29 -64 -64 -64s-64 29 -64 64c0 4 4 8 8 8s8 -4 8 -8c0 -26 22 -48 48 -48s48 22 48 48c0 4 4 8 8 8z" />
    <glyph glyph-name="light-switch" unicode="&#xe017;" horiz-adv-x="384" 
d="M320 448c35 0 64 -29 64 -64v-384c0 -35 -29 -64 -64 -64h-256c-35 0 -64 29 -64 64v384c0 35 29 64 64 64h256zM368 0v384c0 26 -22 48 -48 48h-256c-26 0 -48 -22 -48 -48v-384c0 -26 22 -48 48 -48h256c26 0 48 22 48 48zM192 376c-9 0 -16 7 -16 16s7 16 16 16
s16 -7 16 -16s-7 -16 -16 -16zM192 8c9 0 16 -7 16 -16s-7 -16 -16 -16s-16 7 -16 16s7 16 16 16zM240 352c26 0 48 -22 48 -48v-224c0 -26 -22 -48 -48 -48h-96c-26 0 -48 22 -48 48v224c0 26 22 48 48 48h96zM272 80v104h-160v-104c0 -18 14 -32 32 -32h96
c18 0 32 14 32 32zM272 200v104c0 18 -14 32 -32 32h-96c-18 0 -32 -14 -32 -32v-104h160z" />
    <glyph glyph-name="light-switch-off" unicode="&#xe018;" horiz-adv-x="384" 
d="M192 8c9 0 16 -7 16 -16s-7 -16 -16 -16s-16 7 -16 16s7 16 16 16zM192 376c-9 0 -16 7 -16 16s7 16 16 16s16 -7 16 -16s-7 -16 -16 -16zM240 352c26 0 48 -22 48 -48v-224c0 -26 -22 -48 -48 -48h-96c-26 0 -48 22 -48 48v224c0 26 22 48 48 48h96zM272 80v104h-160
v-104c0 -18 14 -32 32 -32h96c18 0 32 14 32 32zM272 200v104c0 18 -14 32 -32 32h-96c-18 0 -32 -14 -32 -32v-104h160zM320 448c35 0 64 -29 64 -64v-384c0 -35 -29 -64 -64 -64h-256c-35 0 -64 29 -64 64v384c0 35 29 64 64 64h256zM368 0v384c0 26 -22 48 -48 48h-256
c-26 0 -48 -22 -48 -48v-384c0 -26 22 -48 48 -48h256c26 0 48 22 48 48zM152 80c-9 0 -16 7 -16 16v48c0 9 7 16 16 16h80c9 0 16 -7 16 -16v-48c0 -9 -7 -16 -16 -16h-80zM152 144v-48h80v48h-80z" />
    <glyph glyph-name="light-switch-on" unicode="&#xe019;" horiz-adv-x="384" 
d="M192 376c-9 0 -16 7 -16 16s7 16 16 16s16 -7 16 -16s-7 -16 -16 -16zM192 8c9 0 16 -7 16 -16s-7 -16 -16 -16s-16 7 -16 16s7 16 16 16zM144 32c-26 0 -48 22 -48 48v224c0 26 22 48 48 48h96c26 0 48 -22 48 -48v-224c0 -26 -22 -48 -48 -48h-96zM112 304v-104h160
v104c0 18 -14 32 -32 32h-96c-18 0 -32 -14 -32 -32zM112 184v-104c0 -18 14 -32 32 -32h96c18 0 32 14 32 32v104h-160zM64 -64c-35 0 -64 29 -64 64v384c0 35 29 64 64 64h256c35 0 64 -29 64 -64v-384c0 -35 -29 -64 -64 -64h-256zM16 384v-384c0 -26 22 -48 48 -48h256
c26 0 48 22 48 48v384c0 26 -22 48 -48 48h-256c-26 0 -48 -22 -48 -48zM232 304c9 0 16 -7 16 -16v-48c0 -9 -7 -16 -16 -16h-80c-9 0 -16 7 -16 16v48c0 9 7 16 16 16h80zM232 240v48h-80v-48h80z" />
    <glyph glyph-name="microwave" unicode="&#xe01b;" horiz-adv-x="576" 
d="M528 416c26 0 48 -22 48 -48v-320c0 -26 -22 -48 -48 -48h-480c-26 0 -48 22 -48 48v320c0 26 22 48 48 48h480zM560 48v320c0 18 -14 32 -32 32h-480c-18 0 -32 -14 -32 -32v-320c0 -18 14 -32 32 -32h480c18 0 32 14 32 32zM390 328c19 0 34 -15 34 -34v-172
c0 -19 -15 -34 -34 -34h-268c-19 0 -34 15 -34 34v172c0 19 15 34 34 34h268zM408 122v172c0 10 -8 18 -18 18h-268c-10 0 -18 -8 -18 -18v-172c0 -10 8 -18 18 -18h268c10 0 18 8 18 18zM496 224c18 0 32 -14 32 -32s-14 -32 -32 -32s-32 14 -32 32s14 32 32 32zM496 176
c9 0 16 7 16 16s-7 16 -16 16s-16 -7 -16 -16s7 -16 16 -16zM496 320c18 0 32 -14 32 -32s-14 -32 -32 -32s-32 14 -32 32s14 32 32 32zM496 272c9 0 16 7 16 16s-7 16 -16 16s-16 -7 -16 -16s7 -16 16 -16zM128 -16c4 0 8 -4 8 -8s-4 -8 -8 -8h-64c-4 0 -8 4 -8 8s4 8 8 8
h64zM512 -16c4 0 8 -4 8 -8s-4 -8 -8 -8h-64c-4 0 -8 4 -8 8s4 8 8 8h64z" />
    <glyph glyph-name="outlet" unicode="&#xe01c;" horiz-adv-x="448" 
d="M224 176c18 0 32 -14 32 -32v-24c0 -4 -4 -8 -8 -8h-48c-4 0 -8 4 -8 8v24c0 18 14 32 32 32zM240 128v16c0 9 -7 16 -16 16s-16 -7 -16 -16v-16h32zM160 256c4 0 8 -4 8 -8v-64c0 -4 -4 -8 -8 -8s-8 4 -8 8v64c0 4 4 8 8 8zM288 256c4 0 8 -4 8 -8v-64c0 -4 -4 -8 -8 -8
s-8 4 -8 8v64c0 4 4 8 8 8zM384 416c35 0 64 -29 64 -64v-320c0 -35 -29 -64 -64 -64h-320c-35 0 -64 29 -64 64v320c0 35 29 64 64 64h320zM432 32v320c0 26 -22 48 -48 48h-320c-26 0 -48 -22 -48 -48v-320c0 -26 22 -48 48 -48h320c26 0 48 22 48 48zM319 320
c5 0 10 -2 14 -5c31 -32 51 -75 51 -123s-20 -91 -51 -123c-4 -3 -9 -5 -14 -5h-190c-5 0 -10 2 -14 5c-31 32 -51 75 -51 123s20 91 51 123c4 3 9 5 14 5v0h190v0v0v-16h-190v0c-1 0 -2 0 -2 -1c-30 -29 -47 -69 -47 -111s17 -82 47 -111c0 -1 1 -1 2 -1h190c1 0 2 0 2 1
c30 29 47 69 47 111s-17 82 -47 111c0 1 -1 1 -2 1v16z" />
    <glyph glyph-name="oven" unicode="&#xe01d;" horiz-adv-x="448" 
d="M80 368c9 0 16 -7 16 -16s-7 -16 -16 -16s-16 7 -16 16s7 16 16 16zM96 0c-18 0 -32 14 -32 32v160c0 18 14 32 32 32h256c18 0 32 -14 32 -32v-160c0 -18 -14 -32 -32 -32h-256zM80 192v-160c0 -9 7 -16 16 -16h256c9 0 16 7 16 16v160c0 9 -7 16 -16 16h-256
c-9 0 -16 -7 -16 -16zM368 368c9 0 16 -7 16 -16s-7 -16 -16 -16s-16 7 -16 16s7 16 16 16zM176 368c9 0 16 -7 16 -16s-7 -16 -16 -16s-16 7 -16 16s7 16 16 16zM384 448c35 0 64 -29 64 -64v-384c0 -35 -29 -64 -64 -64h-320c-35 0 -64 29 -64 64v384c0 35 29 64 64 64
h320zM432 0v272h-416v-272c0 -26 22 -48 48 -48h320c26 0 48 22 48 48zM432 288v96c0 26 -22 48 -48 48h-320c-26 0 -48 -22 -48 -48v-96h416zM272 368c9 0 16 -7 16 -16s-7 -16 -16 -16s-16 7 -16 16s7 16 16 16zM120 144c-4 0 -8 4 -8 8s4 8 8 8h208c4 0 8 -4 8 -8
s-4 -8 -8 -8h-208z" />
    <glyph glyph-name="planet-moon" unicode="&#xe01f;" horiz-adv-x="576" 
d="M288 168c22 0 40 -18 40 -40v-17c0 -11 -3 -22 -8 -32l-40 -81c-5 -10 -15 -18 -27 -20c-3 0 -11 -1 -13 -1c-6 0 -12 2 -16 6c-5 5 -8 11 -8 18v56c-18 4 -32 20 -32 39v29l-52 52c-5 5 -11 7 -17 7h-25c-27 0 -34 26 -34 40c0 4 4 8 8 8v0c4 0 8 -4 8 -8
c0 -2 1 -24 18 -24h25c10 0 20 -4 28 -12l57 -57v-35c0 -13 11 -24 24 -24h8v-71c0 -2 2 -8 9 -8c3 0 6 1 10 1c6 1 12 6 15 11l40 81c4 8 6 16 6 25v17c0 13 -11 24 -24 24h-64c-12 0 -24 5 -33 13c-14 15 -15 39 -2 55l50 57c6 9 9 19 9 30s-9 21 -20 21c-4 0 -8 4 -7 8
c0 5 4 8 8 8c20 -1 35 -17 35 -37c0 -14 -4 -28 -12 -40l-50 -58c-9 -9 -8 -24 1 -32c5 -6 13 -9 21 -9h64zM512 448c35 0 64 -29 64 -64s-29 -64 -64 -64s-64 29 -64 64s29 64 64 64zM512 336c26 0 48 22 48 48s-22 48 -48 48s-48 -22 -48 -48s22 -48 48 -48zM224 384
c124 0 224 -100 224 -224s-100 -224 -224 -224s-224 100 -224 224s100 224 224 224zM224 -48c115 0 208 93 208 208s-93 208 -208 208s-208 -93 -208 -208s93 -208 208 -208z" />
    <glyph glyph-name="planet-ringed" unicode="&#xe020;" 
d="M501 437c26 -26 2 -83 -23 -126c-8 -14 -18 -29 -28 -44c9 -24 14 -49 14 -75c0 -115 -93 -208 -208 -208c-26 0 -51 5 -75 14c-15 -10 -30 -20 -44 -28c-30 -17 -67 -34 -95 -34c-12 0 -23 3 -31 11c-20 20 -13 62 20 121c2 4 7 5 11 3s5 -7 3 -11
c-28 -50 -36 -88 -23 -102c15 -14 54 -4 107 26c11 6 23 14 35 22c-69 34 -116 104 -116 186c0 115 93 208 208 208c82 0 152 -47 186 -116c8 12 16 24 22 35c30 53 40 92 26 107c-14 13 -52 5 -102 -23c-4 -2 -9 -1 -11 3s-1 9 3 11c59 33 101 40 121 20zM64 192
c0 -78 47 -146 115 -176c44 31 90 72 136 117s86 92 117 136c-30 68 -97 115 -176 115c-106 0 -192 -86 -192 -192zM448 192c0 21 -3 40 -9 59c-31 -42 -69 -87 -112 -130s-88 -81 -130 -112c19 -6 38 -9 59 -9c106 0 192 86 192 192z" />
    <glyph glyph-name="police-box" unicode="&#xe021;" horiz-adv-x="448" 
d="M416 -48c4 0 8 -4 8 -8s-4 -8 -8 -8h-384c-4 0 -8 4 -8 8s4 8 8 8h384zM72 -24c-4 0 -8 4 -8 8v360c0 19 14 35 32 38v10c0 13 11 24 24 24h96v24c0 4 4 8 8 8s8 -4 8 -8v-24h96c13 0 24 -11 24 -24v-10c18 -3 32 -19 32 -38v-360c0 -4 -4 -8 -8 -8s-8 4 -8 8v360
c0 13 -11 24 -24 24h-240c-13 0 -24 -11 -24 -24v-360c0 -4 -4 -8 -8 -8zM112 392v-8h224v8c0 4 -4 8 -8 8h-208c-4 0 -8 -4 -8 -8zM208 304v-64c0 -9 -7 -16 -16 -16h-64c-9 0 -16 7 -16 16v64c0 9 7 16 16 16h64c9 0 16 -7 16 -16zM152 240v24h-24v-24h24zM152 280v24h-24
v-24h24zM192 240v24h-24v-24h24zM192 280v24h-24v-24h24zM192 192c9 0 16 -7 16 -16v-64c0 -9 -7 -16 -16 -16h-64c-9 0 -16 7 -16 16v64c0 9 7 16 16 16h64zM192 112v64h-64v-64h64zM256 320h64c9 0 16 -7 16 -16v-64c0 -9 -7 -16 -16 -16h-64c-9 0 -16 7 -16 16v64
c0 9 7 16 16 16zM280 240v24h-24v-24h24zM280 280v24h-24v-24h24zM320 240v24h-24v-24h24zM320 280v24h-24v-24h24z" />
    <glyph glyph-name="person-to-portal" unicode="&#xe022;" 
d="M276 344c-29 0 -52 23 -52 52s23 52 52 52s52 -23 52 -52s-23 -52 -52 -52zM276 432c-20 0 -36 -16 -36 -36s16 -36 36 -36s36 16 36 36s-16 36 -36 36zM287 187l-20 41l-32 -78l61 -36c19 -11 28 -34 22 -55l-32 -101c-4 -13 -16 -22 -30 -22c-3 0 -6 1 -10 2
c-16 5 -26 23 -20 40l27 87l-85 50c-28 17 -39 51 -26 81l37 87l-15 5h-5c-7 0 -14 -2 -20 -7l-39 -30c-6 -4 -13 -7 -20 -7c-10 0 -19 5 -25 13c-11 14 -9 34 6 45l39 30c17 13 38 20 58 20c8 0 16 -1 23 -3l71 -21c27 -6 49 -25 62 -51l26 -53h44c18 0 32 -14 32 -32
s-14 -32 -32 -32h-54c-18 0 -35 11 -43 27zM252 234c2 6 8 10 14 10h1c6 0 11 -3 14 -9l20 -41c5 -11 17 -18 29 -18h54c9 0 16 7 16 16s-7 16 -16 16h-44c-6 0 -12 3 -14 9l-27 53c-10 21 -29 37 -51 43l-72 21c-5 1 -11 2 -18 2c-17 0 -34 -6 -48 -16l-40 -31
c-7 -5 -8 -15 -3 -22c3 -4 8 -7 13 -7c4 0 7 2 10 4l39 30c9 7 19 10 30 10c3 0 6 0 9 -1l16 -4c4 -2 8 -5 10 -9s2 -9 0 -13l-38 -88c-9 -22 -1 -47 20 -60l85 -50c7 -4 9 -11 7 -18l-27 -88c-1 -4 -1 -9 1 -12c2 -4 5 -7 9 -8c2 -1 3 -1 5 -1c7 0 13 5 15 11l32 101
c4 14 -2 29 -15 36l-61 36c-7 4 -9 13 -6 20zM146 83c3 4 8 5 11 3c4 -3 5 -7 3 -11l-16 -25c-7 -11 -20 -18 -33 -18h-79c-18 0 -32 14 -32 32s14 32 32 32h59l22 36c3 4 8 5 11 3c4 -3 5 -7 3 -11l-25 -40c-2 -3 -4 -4 -7 -4h-63c-9 0 -16 -7 -16 -16s7 -16 16 -16h79
c8 0 15 4 20 11zM432 448c52 0 80 -132 80 -256s-28 -256 -80 -256c-34 0 -62 59 -74 159c-1 4 2 8 7 9c4 1 8 -3 9 -7c11 -95 38 -145 58 -145c30 0 64 99 64 240s-34 240 -64 240c-20 0 -47 -50 -58 -145c-1 -4 -5 -8 -9 -7c-5 1 -8 5 -7 9c12 100 40 159 74 159z" />
    <glyph glyph-name="person-from-portal" unicode="&#xe023;" 
d="M372 344c-29 0 -52 23 -52 52s23 52 52 52s52 -23 52 -52s-23 -52 -52 -52zM372 432c-20 0 -36 -16 -36 -36s16 -36 36 -36s36 16 36 36s-16 36 -36 36zM104 -28c2 4 7 5 11 3s5 -7 3 -11c-11 -19 -24 -28 -38 -28c-52 0 -80 132 -80 256s28 256 80 256
c26 0 48 -33 63 -94c1 -4 -2 -9 -6 -10s-9 2 -10 6c-15 60 -34 82 -47 82c-30 0 -64 -99 -64 -240s34 -240 64 -240c10 0 18 11 24 20zM480 224c18 0 32 -14 32 -32s-14 -32 -32 -32h-54c-18 0 -35 11 -43 27l-20 41l-32 -78l61 -36c19 -11 28 -34 22 -55l-32 -101
c-4 -13 -16 -22 -30 -22c-3 0 -6 1 -10 2c-16 5 -26 23 -20 40l27 87l-85 50c-28 17 -39 51 -26 81l37 87l-15 5h-5c-7 0 -14 -2 -20 -7l-39 -30c-6 -4 -13 -7 -20 -7c-10 0 -19 5 -25 13c-11 14 -9 34 6 45l39 30c17 13 38 20 58 20c8 0 16 -1 23 -3l71 -21
c27 -6 49 -25 62 -51l26 -53h44zM480 176c9 0 16 7 16 16s-7 16 -16 16h-44c-6 0 -12 3 -14 9l-27 53c-10 21 -29 37 -51 43l-72 21c-5 1 -11 2 -18 2c-17 0 -34 -6 -48 -16l-40 -31c-7 -5 -8 -15 -3 -22c3 -4 8 -7 13 -7c4 0 7 2 10 4l39 30c9 7 19 10 30 10c3 0 6 0 9 -1
l16 -4c4 -2 8 -5 10 -9s2 -9 0 -13l-38 -88c-9 -22 -1 -47 20 -60l85 -50c7 -4 9 -11 7 -18l-27 -88c-1 -4 -1 -9 1 -12c2 -4 5 -7 9 -8c2 -1 3 -1 5 -1c7 0 13 5 15 11l32 101c4 14 -2 29 -15 36l-61 36c-7 4 -9 13 -7 20l32 78c2 6 8 10 14 10h1c6 0 11 -3 14 -9l20 -41
c5 -11 17 -18 29 -18h54zM242 83c3 4 8 5 11 3c4 -3 5 -7 3 -11l-16 -25c-7 -11 -20 -18 -33 -18h-79c-18 0 -32 14 -32 32s14 32 32 32h59l22 36c3 4 8 5 11 3c4 -3 5 -7 3 -11l-25 -40c-2 -3 -4 -4 -7 -4h-63c-9 0 -16 -7 -16 -16s7 -16 16 -16h79c8 0 15 4 20 11z" />
    <glyph glyph-name="radar" unicode="&#xe024;" 
d="M400 192c0 4 4 8 8 8s8 -4 8 -8c0 -62 -36 -119 -93 -145c-1 -1 -2 -1 -3 -1c-3 0 -6 2 -7 5c-2 4 0 8 4 10c50 24 83 75 83 131zM504 200c4 0 8 -4 8 -8c0 -141 -115 -256 -256 -256s-256 115 -256 256s115 256 256 256c66 0 127 -25 175 -70l43 44c3 3 9 3 12 0
s3 -9 0 -12l-224 -224c-2 -1 -4 -2 -6 -2s-4 1 -6 2c-3 3 -3 9 0 12l33 32c-8 6 -17 10 -27 10c-26 0 -48 -22 -48 -48s22 -48 48 -48s48 22 48 48c0 4 4 8 8 8s8 -4 8 -8c0 -35 -29 -64 -64 -64s-64 29 -64 64s29 64 64 64c14 0 28 -5 39 -14l57 57c-27 24 -60 37 -96 37
c-56 0 -107 -33 -131 -83c-1 -3 -4 -5 -7 -5c-1 0 -2 0 -3 1c-4 2 -6 6 -4 10c26 57 83 93 145 93c40 0 77 -15 107 -42l57 57c-45 42 -103 65 -164 65c-132 0 -240 -108 -240 -240s108 -240 240 -240s240 108 240 240c0 4 4 8 8 8zM216 32c0 22 18 40 40 40s40 -18 40 -40
s-18 -40 -40 -40s-40 18 -40 40zM280 32c0 13 -11 24 -24 24s-24 -11 -24 -24s11 -24 24 -24s24 11 24 24zM189 47c-35 16 -62 43 -78 78c-2 4 0 8 4 10s8 0 10 -4c15 -30 40 -55 70 -70c4 -2 6 -6 4 -10c-1 -3 -4 -5 -7 -5c-1 0 -2 0 -3 1zM136 192c0 -22 -18 -40 -40 -40
s-40 18 -40 40s18 40 40 40s40 -18 40 -40zM96 168c13 0 24 11 24 24s-11 24 -24 24s-24 -11 -24 -24s11 -24 24 -24z" />
    <glyph glyph-name="raygun" unicode="&#xe025;" horiz-adv-x="576" 
d="M112 288c9 0 16 -7 16 -16s-7 -16 -16 -16s-16 7 -16 16s7 16 16 16zM208 288c9 0 16 -7 16 -16s-7 -16 -16 -16s-16 7 -16 16s7 16 16 16zM572 343c2 -1 4 -4 4 -7v-128c0 -3 -2 -6 -4 -7c-1 -1 -3 -1 -4 -1c-2 0 -3 0 -4 1l-94 63h-54v-64c0 -4 -4 -8 -8 -8s-8 4 -8 8
v64h-48v-96c0 -4 -4 -8 -8 -8s-8 4 -8 8v19c-13 -16 -33 -27 -56 -27h-168c-62 0 -112 50 -112 112c0 45 26 83 64 101v67c0 3 1 5 4 7c2 1 5 1 8 0l117 -63h87c23 0 43 -11 56 -27v19c0 4 4 8 8 8s8 -4 8 -8v-96h48v64c0 4 4 8 8 8s8 -4 8 -8v-64h54l94 63c2 1 5 1 8 0z
M80 427v-48c10 3 21 5 32 5h47zM336 232v80c0 31 -25 56 -56 56h-168c-53 0 -96 -43 -96 -96s43 -96 96 -96h168c31 0 56 25 56 56zM560 223v98l-74 -49zM255 124c2 4 7 5 11 3s5 -7 3 -11l-89 -154c-7 -12 -18 -21 -32 -24c-4 -1 -9 -2 -13 -2c-9 0 -18 2 -26 7l-51 29
c-12 7 -21 19 -24 32c-4 13 -2 27 5 39l47 81c2 4 7 5 11 3s5 -7 3 -11l-47 -81c-5 -8 -6 -18 -4 -27c3 -9 9 -17 17 -22l51 -29c8 -5 18 -6 27 -4c9 3 17 9 22 17z" />
    <glyph glyph-name="refrigerator" unicode="&#xe026;" horiz-adv-x="384" 
d="M320 448c35 0 64 -29 64 -64v-416c0 -18 -14 -32 -32 -32h-320c-18 0 -32 14 -32 32v416c0 35 29 64 64 64h256zM368 -32v288h-64v-184c0 -4 -4 -8 -8 -8s-8 4 -8 8v184h-272v-288c0 -9 7 -16 16 -16h320c9 0 16 7 16 16zM368 272v112c0 26 -22 48 -48 48h-256
c-26 0 -48 -22 -48 -48v-112h272v104c0 4 4 8 8 8s8 -4 8 -8v-104h64z" />
    <glyph glyph-name="rocket-launch" unicode="&#xe027;" 
d="M102 128c25 0 49 -10 64 -25c51 -52 38 -163 -134 -167v0h-32v32v0c2 121 54 160 102 160zM171 15c11 26 4 56 -17 76c-12 13 -32 21 -52 21c-52 0 -84 -54 -86 -144v-8v-8h9h7c73 2 124 25 139 63zM505 429c7 -32 7 -58 7 -83c0 -102 -55 -164 -128 -211v-104
c0 -17 -12 -36 -26 -43l-99 -49c-4 -2 -7 -3 -11 -3c-13 0 -24 11 -24 24v104c0 53 -43 96 -96 96h-104c-13 0 -24 11 -24 24c0 4 1 7 3 11l49 99c7 14 27 26 43 26h104c46 73 108 128 211 128c25 0 51 0 83 -7c5 -1 11 -7 12 -12zM123 176c5 9 10 19 14 28
c17 34 34 68 54 100h-96c-10 0 -24 -9 -29 -18l-49 -98c0 -1 -1 -3 -1 -5c0 -3 4 -7 8 -7h99zM368 31v96c-33 -20 -67 -38 -101 -54c-9 -5 -18 -9 -27 -14v-99c0 -4 4 -8 8 -8c1 0 3 0 4 1l98 49c10 5 18 18 18 29zM260 87c153 75 236 131 236 259c0 24 0 48 -7 79v0v1
c-30 6 -54 6 -79 6c-136 0 -190 -95 -258 -235c-4 -7 -8 -15 -11 -22c51 -6 92 -47 98 -98c7 3 14 7 21 10zM368 360c31 0 56 -25 56 -56s-25 -56 -56 -56s-56 25 -56 56s25 56 56 56zM368 264c22 0 40 18 40 40s-18 40 -40 40s-40 -18 -40 -40s18 -40 40 -40z" />
    <glyph glyph-name="sensor" unicode="&#xe028;" horiz-adv-x="448" 
d="M384 416c35 0 64 -29 64 -64v-320c0 -35 -29 -64 -64 -64h-320c-35 0 -64 29 -64 64v320c0 35 29 64 64 64h320zM432 32v320c0 26 -22 48 -48 48h-320c-26 0 -48 -22 -48 -48v-320c0 -26 22 -48 48 -48h320c26 0 48 22 48 48zM88 352c4 0 8 -4 8 -8v-176
c0 -4 -4 -8 -8 -8s-8 4 -8 8v176c0 4 4 8 8 8zM152 352c4 0 8 -4 8 -8v-176c0 -4 -4 -8 -8 -8s-8 4 -8 8v176c0 4 4 8 8 8zM216 352c4 0 8 -4 8 -8v-176c0 -4 -4 -8 -8 -8s-8 4 -8 8v176c0 4 4 8 8 8z" />
    <glyph glyph-name="sensor-triangle-exclamation" unicode="&#xe029;" horiz-adv-x="640" 
d="M80 344c0 4 4 8 8 8s8 -4 8 -8v-176c0 -4 -4 -8 -8 -8s-8 4 -8 8v176zM633 46c20 -35 -5 -78 -44 -78h-282c-39 0 -64 43 -44 78l141 248c10 17 27 26 44 26s34 -9 44 -26zM619 2c7 11 7 25 0 36l-141 248c-6 11 -17 18 -30 18s-24 -7 -30 -18l-141 -248
c-7 -11 -7 -25 0 -36c6 -11 18 -18 30 -18h282c12 0 24 7 30 18zM216 -16c4 0 8 -4 8 -8s-4 -8 -8 -8h-152c-35 0 -64 29 -64 64v320c0 35 29 64 64 64h320c32 0 59 -24 63 -55c1 -5 -3 -9 -8 -9c-4 0 -7 3 -7 7c-4 23 -24 41 -48 41h-320c-26 0 -48 -22 -48 -48v-320
c0 -26 22 -48 48 -48h152zM144 344c0 4 4 8 8 8s8 -4 8 -8v-176c0 -4 -4 -8 -8 -8s-8 4 -8 8v176zM216 352c4 0 8 -4 8 -8v-176c0 -4 -4 -8 -8 -8s-8 4 -8 8v176c0 4 4 8 8 8zM448 64c9 0 16 -7 16 -16s-7 -16 -16 -16s-16 7 -16 16s7 16 16 16zM448 96c-4 0 -8 4 -8 8v96
c0 4 4 8 8 8s8 -4 8 -8v-96c0 -4 -4 -8 -8 -8z" />
    <glyph glyph-name="sensor-fire" unicode="&#xe02a;" horiz-adv-x="640" 
d="M572 169c23 -44 11 -98 -27 -125c-19 -13 -40 -20 -63 -20c-61 0 -106 43 -106 102c0 33 21 61 57 103c1 2 3 3 6 3v0c2 0 4 -1 6 -3c4 -5 51 -65 68 -87l38 43c1 2 4 3 6 3c3 0 5 -2 7 -4c3 -5 6 -10 8 -15zM535 57c33 22 42 67 23 104c-1 2 -2 4 -3 5l-36 -41
c-2 -2 -4 -3 -6 -3c-3 0 -5 1 -7 3c-19 25 -53 69 -67 86c-33 -39 -47 -61 -47 -85c0 -51 37 -86 90 -86c19 0 38 6 53 17v0zM553 291c51 -47 87 -122 87 -160c0 -90 -72 -163 -160 -163s-160 73 -160 163c0 51 49 133 117 195c3 3 7 3 10 0c23 -21 44 -44 63 -68
c10 12 21 23 32 33c3 3 8 3 11 0zM480 -16c79 0 144 66 144 147c0 33 -32 100 -76 144c-12 -11 -23 -23 -32 -35c-2 -2 -4 -2 -7 -3c-2 0 -5 1 -6 3c-18 25 -38 48 -61 69c-61 -58 -106 -133 -106 -178c0 -81 65 -147 144 -147zM344 -16c4 0 8 -4 8 -8s-4 -8 -8 -8h-280
c-35 0 -64 29 -64 64v320c0 35 29 64 64 64h320c32 0 59 -24 63 -55c1 -5 -3 -9 -8 -9c-4 0 -7 3 -7 7c-4 23 -24 41 -48 41h-320c-26 0 -48 -22 -48 -48v-320c0 -26 22 -48 48 -48h280zM207 344c0 4 4 8 8 8s8 -4 8 -8v-176c0 -4 -3 -8 -8 -8s-8 4 -8 8v176zM143 344
c0 4 4 8 8 8s8 -4 8 -8v-176c0 -4 -3 -8 -8 -8s-8 4 -8 8v176zM79 344c0 4 4 8 8 8s8 -4 8 -8v-176c0 -4 -3 -8 -8 -8s-8 4 -8 8v176z" />
    <glyph glyph-name="sensor-on" unicode="&#xe02b;" horiz-adv-x="640" 
d="M216 352c4 0 8 -4 8 -8v-176c0 -4 -4 -8 -8 -8s-8 4 -8 8v176c0 4 4 8 8 8zM88 352c4 0 8 -4 8 -8v-176c0 -4 -4 -8 -8 -8s-8 4 -8 8v176c0 4 4 8 8 8zM152 352c4 0 8 -4 8 -8v-176c0 -4 -4 -8 -8 -8s-8 4 -8 8v176c0 4 4 8 8 8zM384 416c35 0 64 -29 64 -64v-320
c0 -35 -29 -64 -64 -64h-320c-35 0 -64 29 -64 64v320c0 35 29 64 64 64h320zM432 32v320c0 26 -22 48 -48 48h-320c-26 0 -48 -22 -48 -48v-320c0 -26 22 -48 48 -48h320c26 0 48 22 48 48zM632 200c4 0 8 -4 8 -8s-4 -8 -8 -8h-112c-4 0 -8 4 -8 8s4 8 8 8h112zM520 320
c-3 0 -5 1 -7 4c-2 4 -1 9 3 11l80 48c4 2 9 1 11 -3s1 -9 -3 -11l-80 -48c-1 -1 -3 -1 -4 -1zM524 63l80 -48c4 -2 5 -7 3 -11c-2 -3 -4 -4 -7 -4c-1 0 -3 0 -4 1l-80 48c-4 2 -5 7 -3 11s7 5 11 3z" />
    <glyph glyph-name="sensor-cloud" unicode="&#xe02c;" horiz-adv-x="640" 
d="M578 131c38 -10 65 -47 62 -87c-4 -43 -41 -76 -84 -76h-215c-47 0 -85 37 -85 83c0 43 34 79 77 83c-3 38 22 75 60 86c39 12 79 -5 98 -38c17 14 41 16 60 5c21 -11 31 -34 27 -56zM556 -16c35 0 65 27 68 62c3 34 -23 66 -58 71c-2 0 -3 2 -5 4s-2 5 -1 7
c7 17 0 36 -16 45c-17 9 -38 5 -49 -9c-2 -3 -5 -4 -8 -3c-2 0 -5 2 -6 5c-13 32 -49 49 -83 39c-35 -10 -55 -43 -48 -77c1 -3 0 -5 -2 -7c-1 -2 -4 -3 -6 -3c-39 0 -70 -30 -70 -67s31 -67 69 -67h215zM248 -16c4 0 8 -4 8 -8s-4 -8 -8 -8h-184c-35 0 -64 29 -64 64v320
c0 35 29 64 64 64h320c35 0 64 -29 64 -64v-88c0 -4 -4 -8 -8 -8s-8 4 -8 8v88c0 26 -22 48 -48 48h-320c-26 0 -48 -22 -48 -48v-320c0 -26 22 -48 48 -48h184zM208 344c0 4 4 8 8 8s8 -4 8 -8v-176c0 -4 -4 -8 -8 -8s-8 4 -8 8v176zM144 344c0 4 4 8 8 8s8 -4 8 -8v-176
c0 -4 -4 -8 -8 -8s-8 4 -8 8v176zM80 344c0 4 4 8 8 8s8 -4 8 -8v-176c0 -4 -4 -8 -8 -8s-8 4 -8 8v176z" />
    <glyph glyph-name="siren" unicode="&#xe02d;" horiz-adv-x="448" 
d="M55 88c-4 1 -7 5 -7 9l24 194c4 35 34 61 68 61h168c34 0 64 -26 68 -61l24 -194c0 -4 -3 -8 -7 -9h-1c-4 0 -7 3 -8 7l-24 194c-3 27 -26 47 -52 47h-168c-26 0 -49 -20 -52 -47l-24 -194c-1 -4 -5 -7 -9 -7zM144 291c0 4 4 7 9 7c4 -1 7 -5 7 -9l-24 -194
c-1 -4 -4 -7 -8 -7h-1c-4 1 -7 5 -7 9zM416 64c18 0 32 -14 32 -32v-32c0 -18 -14 -32 -32 -32h-384c-18 0 -32 14 -32 32v32c0 18 14 32 32 32h384zM432 0v32c0 9 -7 16 -16 16h-384c-9 0 -16 -7 -16 -16v-32c0 -9 7 -16 16 -16h384c9 0 16 7 16 16z" />
    <glyph glyph-name="siren-on" unicode="&#xe02e;" horiz-adv-x="640" 
d="M240 291c0 4 4 7 9 7c4 -1 7 -5 7 -9l-24 -194c-1 -4 -4 -7 -8 -7h-1c-4 1 -7 5 -7 9zM151 88c-4 1 -7 5 -7 9l24 194c4 35 34 61 68 61h168c34 0 64 -26 68 -61l24 -194c0 -4 -3 -8 -7 -9h-1c-4 0 -7 3 -8 7l-24 194c-3 27 -26 47 -52 47h-168c-26 0 -49 -20 -52 -47
l-24 -194c-1 -4 -5 -7 -9 -7zM512 64c18 0 32 -14 32 -32v-32c0 -18 -14 -32 -32 -32h-384c-18 0 -32 14 -32 32v32c0 18 14 32 32 32h384zM528 0v32c0 9 -7 16 -16 16h-384c-9 0 -16 -7 -16 -16v-32c0 -9 7 -16 16 -16h384c9 0 16 7 16 16zM520 352c-3 0 -5 1 -7 4
c-2 4 -1 9 3 11l80 48c4 2 9 1 11 -3s1 -9 -3 -11l-80 -48c-1 -1 -3 -1 -4 -1zM632 232c4 0 8 -4 8 -8s-4 -8 -8 -8h-80c-4 0 -8 4 -8 8s4 8 8 8h80zM88 232c4 0 8 -4 8 -8s-4 -8 -8 -8h-80c-4 0 -8 4 -8 8s4 8 8 8h80zM116 353l-80 48c-4 2 -5 7 -3 11s7 5 11 3l80 -48
c4 -2 5 -7 3 -11c-2 -3 -4 -4 -7 -4c-1 0 -3 0 -4 1z" />
    <glyph glyph-name="solar-system" unicode="&#xe02f;" 
d="M349 -3c4 2 8 0 10 -4s0 -9 -4 -11c-31 -15 -64 -22 -99 -22c-128 0 -232 104 -232 232c0 46 13 89 38 127c-9 8 -14 20 -14 33c0 26 22 48 48 48s48 -22 48 -48s-22 -48 -48 -48c-8 0 -15 2 -21 5c-23 -34 -35 -75 -35 -117c0 -119 97 -216 216 -216c32 0 64 7 93 21z
M96 384c-18 0 -32 -14 -32 -32s14 -32 32 -32s32 14 32 32s-14 32 -32 32zM388 265c13 -22 20 -46 20 -73c0 -84 -68 -152 -152 -152s-152 68 -152 152s68 152 152 152c22 0 43 -5 62 -14c9 9 21 14 34 14c26 0 48 -22 48 -48c0 -12 -4 -23 -12 -31zM352 328
c-18 0 -32 -14 -32 -32s14 -32 32 -32s32 14 32 32s-14 32 -32 32zM256 56c75 0 136 61 136 136c0 23 -6 44 -16 63c-7 -4 -15 -7 -24 -7c-26 0 -48 22 -48 48c0 8 2 15 5 21c-16 7 -34 11 -53 11c-75 0 -136 -61 -136 -136s61 -136 136 -136zM256 256c35 0 64 -29 64 -64
s-29 -64 -64 -64s-64 29 -64 64s29 64 64 64zM256 144c26 0 48 22 48 48s-22 48 -48 48s-48 -22 -48 -48s22 -48 48 -48zM488 192c0 -46 -13 -89 -38 -127c9 -8 14 -20 14 -33c0 -26 -22 -48 -48 -48s-48 22 -48 48s22 48 48 48c8 0 15 -2 21 -5c23 34 35 75 35 117
c0 119 -97 216 -216 216c-32 0 -64 -7 -93 -21c-4 -2 -8 0 -10 4s0 9 4 11c31 15 64 22 99 22c128 0 232 -104 232 -232zM416 0c18 0 32 14 32 32s-14 32 -32 32s-32 -14 -32 -32s14 -32 32 -32z" />
    <glyph glyph-name="circle-sort" unicode="&#xe030;" 
d="M256 432c133 0 240 -107 240 -240s-107 -240 -240 -240s-240 107 -240 240s107 240 240 240zM256 -32c124 0 224 100 224 224s-100 224 -224 224s-224 -100 -224 -224s100 -224 224 -224zM336 160c10 0 18 -6 22 -15s2 -19 -5 -26l-80 -80c-5 -4 -11 -7 -17 -7
s-12 2 -17 7l-80 80c-7 7 -9 17 -5 26s12 15 22 15h160zM342 130c3 4 2 8 1 9c0 1 -2 5 -7 5h-160c-5 0 -7 -4 -7 -5c-1 -1 -2 -5 1 -9l80 -80c3 -3 9 -3 12 0zM273 345l80 -80c7 -7 9 -17 5 -26s-12 -15 -22 -15h-160c-10 0 -18 6 -22 15s-2 19 5 26l80 80c10 9 25 9 34 0z
M343 245c1 1 2 5 -1 9l-80 80c-2 1 -4 2 -6 2s-4 -1 -6 -2l-80 -80c-3 -4 -2 -8 -1 -9c0 -1 2 -5 7 -5h160c5 0 7 4 7 5z" />
    <glyph glyph-name="circle-sort-down" unicode="&#xe031;" 
d="M256 432c133 0 240 -107 240 -240s-107 -240 -240 -240s-240 107 -240 240s107 240 240 240zM256 -32c124 0 224 100 224 224s-100 224 -224 224s-224 -100 -224 -224s100 -224 224 -224zM336 160c10 0 18 -6 22 -15s2 -19 -5 -26l-80 -80c-5 -4 -11 -7 -17 -7
s-12 2 -17 7l-80 80c-7 7 -9 17 -5 26s12 15 22 15h160zM342 130c3 4 2 8 1 9c0 1 -2 5 -7 5h-160c-5 0 -7 -4 -7 -5c-1 -1 -2 -5 1 -9l80 -80c3 -3 9 -3 12 0zM273 345l85 -83c3 -3 3 -8 0 -12c-2 -1 -4 -2 -6 -2s-4 1 -6 2l-84 84c-3 3 -8 3 -12 0l-84 -84
c-4 -3 -9 -3 -12 0c-3 4 -3 9 0 12l85 83c10 9 25 9 34 0z" />
    <glyph glyph-name="circle-sort-up" unicode="&#xe032;" 
d="M256 -48c-133 0 -240 107 -240 240s107 240 240 240s240 -107 240 -240s-107 -240 -240 -240zM256 416c-124 0 -224 -100 -224 -224s100 -224 224 -224s224 100 224 224s-100 224 -224 224zM176 224c-10 0 -18 6 -22 15s-2 19 5 26l80 80c5 4 11 7 17 7s12 -2 17 -7
l80 -80c7 -7 9 -17 5 -26s-12 -15 -22 -15h-160zM170 254c-3 -4 -2 -8 -1 -9c0 -1 2 -5 7 -5h160c5 0 7 4 7 5c1 1 2 5 -1 9l-80 80c-3 3 -9 3 -12 0zM239 39l-85 83c-3 3 -3 8 0 12c2 1 4 2 6 2s4 -1 6 -2l84 -84c3 -3 8 -3 12 0l84 84c4 3 9 3 12 0c3 -4 3 -9 0 -12
l-85 -83c-10 -9 -25 -9 -34 0z" />
    <glyph glyph-name="space-station-moon" unicode="&#xe033;" 
d="M256 432c133 0 240 -107 240 -240s-107 -240 -240 -240s-240 107 -240 240s107 240 240 240zM256 -32c99 0 183 65 213 154c-69 -17 -140 -26 -213 -26s-144 9 -213 26c30 -89 114 -154 213 -154zM256 112c75 0 148 10 218 27c4 17 6 35 6 53c0 124 -100 224 -224 224
s-224 -100 -224 -224c0 -18 2 -36 6 -53c70 -17 143 -27 218 -27zM192 368c44 0 80 -36 80 -80s-36 -80 -80 -80s-80 36 -80 80s36 80 80 80zM192 224c35 0 64 29 64 64s-29 64 -64 64s-64 -29 -64 -64s29 -64 64 -64zM192 304c9 0 16 -7 16 -16s-7 -16 -16 -16
s-16 7 -16 16s7 16 16 16z" />
    <glyph glyph-name="space-station-moon-construction" unicode="&#xe034;" 
d="M192 368c44 0 80 -36 80 -80s-36 -80 -80 -80s-80 36 -80 80s36 80 80 80zM192 224c35 0 64 29 64 64s-29 64 -64 64s-64 -29 -64 -64s29 -64 64 -64zM192 304c9 0 16 -7 16 -16s-7 -16 -16 -16s-16 7 -16 16s7 16 16 16zM344 296c0 4 4 8 8 8h96c4 0 8 -4 8 -8
s-4 -8 -8 -8h-96c-4 0 -8 4 -8 8zM488 200c4 0 8 -4 8 -8c0 -21 -3 -41 -8 -62c-1 -2 -3 -5 -6 -5c-73 -19 -149 -29 -226 -29c-72 0 -143 9 -213 26c30 -89 114 -154 213 -154c70 0 136 33 178 88h-82c-4 0 -8 4 -8 8s4 8 8 8h96c4 0 8 -4 8 -8v-2c0 -2 0 -3 -1 -5
c-45 -66 -119 -105 -199 -105c-132 0 -240 108 -240 240s108 240 240 240c66 0 128 -26 174 -74c2 -3 3 -6 1 -9c-1 -3 -4 -5 -7 -5h-64c-4 0 -8 4 -8 8s4 8 8 8h44c-41 36 -93 56 -148 56c-123 0 -224 -101 -224 -224c0 -18 2 -36 7 -53c141 -36 293 -36 434 0
c4 15 6 30 7 45h-64c-4 0 -8 4 -8 8s4 8 8 8h72zM448 256c4 0 8 -4 8 -8s-4 -8 -8 -8h-97c-5 0 -8 4 -8 8s3 8 8 8h97z" />
    <glyph glyph-name="sprinkler" unicode="&#xe035;" 
d="M408 192c3 0 6 -2 7 -5c2 -2 1 -6 -1 -8l-94 -118v-117c0 -4 -4 -8 -8 -8s-8 4 -8 8v120c0 2 1 4 2 5l85 107h-270l85 -107c1 -1 2 -3 2 -5v-120c0 -4 -4 -8 -8 -8s-8 4 -8 8v117l-94 118c-2 2 -3 6 -1 8c1 3 4 5 7 5h144v184c0 4 4 8 8 8s8 -4 8 -8v-184h144zM144 288
c-9 0 -16 7 -16 16s7 16 16 16s16 -7 16 -16s-7 -16 -16 -16zM16 192c9 0 16 -7 16 -16s-7 -16 -16 -16s-16 7 -16 16s7 16 16 16zM16 320c9 0 16 -7 16 -16s-7 -16 -16 -16s-16 7 -16 16s7 16 16 16zM16 448c9 0 16 -7 16 -16s-7 -16 -16 -16s-16 7 -16 16s7 16 16 16z
M368 288c-9 0 -16 7 -16 16s7 16 16 16s16 -7 16 -16s-7 -16 -16 -16zM496 416c-9 0 -16 7 -16 16s7 16 16 16s16 -7 16 -16s-7 -16 -16 -16zM496 320c9 0 16 -7 16 -16s-7 -16 -16 -16s-16 7 -16 16s7 16 16 16zM432 384c9 0 16 -7 16 -16s-7 -16 -16 -16s-16 7 -16 16
s7 16 16 16zM496 192c9 0 16 -7 16 -16s-7 -16 -16 -16s-16 7 -16 16s7 16 16 16zM80 256c9 0 16 -7 16 -16s-7 -16 -16 -16s-16 7 -16 16s7 16 16 16zM432 256c9 0 16 -7 16 -16s-7 -16 -16 -16s-16 7 -16 16s7 16 16 16zM80 384c9 0 16 -7 16 -16s-7 -16 -16 -16
s-16 7 -16 16s7 16 16 16z" />
    <glyph glyph-name="star-shooting" unicode="&#xe036;" 
d="M364 181c19 -3 27 -26 13 -40l-76 -74l18 -104c2 -9 -2 -17 -9 -23c-4 -2 -9 -4 -14 -4c-3 0 -7 1 -10 3l-94 49l-94 -49c-3 -2 -7 -3 -10 -3c-14 0 -26 12 -23 27l18 104l-76 74c-14 14 -6 37 13 40l104 15l47 95c5 9 13 13 21 13s16 -4 21 -13l46 -95zM366 153
c3 3 2 5 2 7c-1 1 -2 4 -6 5l-105 15l-8 1l-4 8l-47 95c-1 4 -5 4 -6 4c-2 0 -5 -1 -6 -4l-47 -95l-4 -8l-8 -1l-105 -15c-4 -1 -5 -4 -6 -5c0 -1 -1 -4 2 -7l76 -74l6 -6l-1 -8l-18 -105c-1 -2 0 -4 1 -5c2 -2 4 -3 6 -3c1 0 2 0 3 1l94 49l7 4l7 -4l94 -49c1 -1 2 -1 3 -1
c2 0 3 1 5 1c2 2 3 5 2 7l-18 105l-1 8l6 6zM232 352c-2 0 -4 1 -6 2c-3 3 -3 9 0 12l80 80c3 3 9 3 12 0s3 -9 0 -12l-80 -80c-2 -1 -4 -2 -6 -2zM498 254c3 3 9 3 12 0s3 -9 0 -12l-80 -80c-2 -1 -4 -2 -6 -2s-4 1 -6 2c-3 3 -3 9 0 12zM322 258c-3 3 -3 9 0 12l176 176
c3 3 9 3 12 0s3 -9 0 -12l-176 -176c-2 -1 -4 -2 -6 -2s-4 1 -6 2z" />
    <glyph glyph-name="starfighter" unicode="&#xe037;" horiz-adv-x="640" 
d="M168 144c-13 0 -24 -11 -24 -24v-128c0 -4 4 -8 8 -8h48c4 0 8 -4 8 -8v-32c0 -4 -4 -8 -8 -8s-8 4 -8 8v24h-40c-11 0 -20 8 -23 18l-89 34v-12c0 -4 -4 -8 -8 -8s-8 4 -8 8v280h-16c-4 0 -8 4 -8 8s4 8 8 8h16v40c0 4 4 8 8 8s8 -4 8 -8v-40h16c4 0 8 -4 8 -8
s-4 -8 -8 -8h-16v-184h88v16c0 22 18 40 40 40h32c4 0 8 -4 8 -8s-4 -8 -8 -8h-32zM128 4v84h-88v-50zM632 304c4 0 8 -4 8 -8s-4 -8 -8 -8h-16v-280c0 -4 -4 -8 -8 -8s-8 4 -8 8v12l-89 -34c-3 -10 -12 -18 -23 -18h-40v-24c0 -4 -4 -8 -8 -8s-8 4 -8 8v32c0 4 4 8 8 8h48
c4 0 8 4 8 8v128c0 13 -11 24 -24 24h-32c-4 0 -8 4 -8 8s4 8 8 8h32c22 0 40 -18 40 -40v-16h88v184h-16c-4 0 -8 4 -8 8s4 8 8 8h16v40c0 4 4 8 8 8s8 -4 8 -8v-40h16zM600 38v50h-88v-84zM320 232c22 0 40 -18 40 -40v-48c0 -13 -11 -24 -24 -24h-32c-13 0 -24 11 -24 24
v48c0 22 18 40 40 40zM344 144v48c0 13 -11 24 -24 24s-24 -11 -24 -24v-48c0 -5 4 -8 8 -8h32c4 0 8 3 8 8zM370 420l30 -242v-1v-177c0 -18 -14 -32 -32 -32h-96c-18 0 -32 14 -32 32v177v1l30 242c2 16 16 28 32 28h36c16 0 30 -12 32 -28zM384 0v176l-30 242
c-1 8 -8 14 -16 14h-36c-8 0 -15 -6 -16 -14l-30 -242v-176c0 -9 7 -16 16 -16h96c9 0 16 7 16 16z" />
    <glyph glyph-name="starfighter-twin-ion-engine" unicode="&#xe038;" horiz-adv-x="576" 
d="M552 416c4 0 8 -4 8 -8v-432c0 -4 -4 -8 -8 -8s-8 4 -8 8v164l-117 -26c-28 -49 -79 -82 -139 -82s-111 33 -139 82l-117 26v-164c0 -4 -4 -8 -8 -8s-8 4 -8 8v432c0 4 4 8 8 8s8 -4 8 -8v-164l117 26c28 49 79 82 139 82s111 -33 139 -82l117 -26v164c0 4 4 8 8 8z
M140 133c-8 18 -12 38 -12 59s4 41 12 59l-108 -24v-70zM288 48c79 0 144 65 144 144s-65 144 -144 144s-144 -65 -144 -144s65 -144 144 -144zM544 157v70l-108 24c8 -18 12 -38 12 -59s-4 -41 -12 -59zM288 304c62 0 112 -50 112 -112s-50 -112 -112 -112
s-112 50 -112 112s50 112 112 112zM296 287v-48c7 -1 14 -4 20 -8l34 34c-15 13 -34 20 -54 22zM280 287c-20 -2 -39 -10 -54 -22l34 -34c6 4 13 7 20 8v48zM215 254c-12 -15 -20 -34 -22 -54h48c1 7 4 14 8 20zM193 184c2 -20 10 -39 22 -54l34 34c-4 6 -7 13 -8 20h-48z
M280 97v48c-7 1 -14 4 -20 8l-34 -34c15 -13 34 -20 54 -22zM256 192c0 -18 14 -32 32 -32s32 14 32 32s-14 32 -32 32s-32 -14 -32 -32zM296 97c20 2 39 10 54 22l-34 34c-6 -4 -13 -7 -20 -8v-48zM361 130c12 15 20 34 22 54h-48c-1 -7 -4 -14 -8 -20zM335 200h48
c-2 20 -10 39 -22 54l-34 -34c4 -6 7 -13 8 -20z" />
    <glyph glyph-name="starship" unicode="&#xe039;" horiz-adv-x="640" 
d="M448 384c106 0 192 -86 192 -192s-86 -192 -192 -192s-192 86 -192 192s86 192 192 192zM448 16c97 0 176 79 176 176s-79 176 -176 176s-176 -79 -176 -176s79 -176 176 -176zM448 272c44 0 80 -36 80 -80s-36 -80 -80 -80s-80 36 -80 80s36 80 80 80zM448 128
c35 0 64 29 64 64s-29 64 -64 64s-64 -29 -64 -64s29 -64 64 -64zM448 224c18 0 32 -14 32 -32s-14 -32 -32 -32s-32 14 -32 32s14 32 32 32zM448 176c9 0 16 7 16 16s-7 16 -16 16s-16 -7 -16 -16s7 -16 16 -16zM240 320c0 -18 -14 -32 -32 -32h-69l45 -45l44 4
c5 1 9 -3 9 -7c0 -5 -3 -9 -7 -9l-99 -9c-15 -1 -27 -14 -27 -30s12 -29 27 -30l99 -9c4 0 7 -4 7 -9c0 -4 -4 -7 -8 -7h-1l-44 4l-45 -45h69c18 0 32 -14 32 -32s-14 -32 -32 -32h-184c-13 0 -24 11 -24 24v16c0 13 11 24 24 24h93l47 47l-34 3c-24 2 -42 22 -42 46
s18 44 42 46l34 3l-47 47h-93c-13 0 -24 11 -24 24v16c0 13 11 24 24 24h184c18 0 32 -14 32 -32zM208 80h-184c-4 0 -8 -4 -8 -8v-16c0 -4 4 -8 8 -8h184c9 0 16 7 16 16s-7 16 -16 16zM24 304h184c9 0 16 7 16 16s-7 16 -16 16h-184c-4 0 -8 -4 -8 -8v-16c0 -4 4 -8 8 -8z
" />
    <glyph glyph-name="starship-freighter" unicode="&#xe03a;" horiz-adv-x="576" 
d="M112 288c-9 0 -16 7 -16 16s7 16 16 16s16 -7 16 -16s-7 -16 -16 -16zM112 96c9 0 16 -7 16 -16s-7 -16 -16 -16s-16 7 -16 16s7 16 16 16zM64 208c9 0 16 -7 16 -16s-7 -16 -16 -16s-16 7 -16 16s7 16 16 16zM560 208h-112v-32h112c9 0 16 -7 16 -16v-58
c0 -13 -8 -25 -21 -30l-118 -43c16 -5 27 -20 27 -37c0 -22 -18 -40 -40 -40h-56c-13 0 -25 6 -32 17l-14 18l-11 -3c-27 -11 -57 -16 -87 -16v0v0v0c-156 0 -226 143 -224 224c-2 83 69 224 224 224v0v0v0c30 0 60 -5 87 -16l244 -88c13 -5 21 -17 21 -30v-58
c0 -9 -7 -16 -16 -16zM224 -16c31 0 60 7 87 19l-65 90l-3 5c-6 -1 -13 -2 -19 -2c-53 0 -96 43 -96 96s43 96 96 96s96 -43 96 -96c0 -17 -5 -33 -13 -47l4 -5l64 -90c35 37 57 87 57 142c0 115 -93 208 -208 208s-208 -93 -208 -208s93 -208 208 -208zM304 192
c0 44 -36 80 -80 80s-80 -36 -80 -80s36 -80 80 -80s80 36 80 80zM448 -8c0 13 -11 24 -24 24h-44l-82 115c-11 -12 -24 -22 -39 -28l90 -125c4 -6 11 -10 19 -10h56c13 0 24 11 24 24zM560 160h-115c-6 -48 -29 -90 -60 -123l3 -5h9l153 55c6 3 10 9 10 15v58zM445 224h115
v58c0 6 -4 12 -10 15l-181 65c41 -34 69 -83 76 -138z" />
    <glyph glyph-name="sword-laser" unicode="&#xe03b;" 
d="M503 439c12 -12 12 -31 1 -43l-219 -239c-2 -2 -4 -2 -6 -2s-4 0 -6 2c-3 3 -3 8 0 11l219 238c5 7 5 16 -1 22c-5 5 -15 5 -21 0l-238 -219c-3 -3 -8 -3 -11 1c-3 3 -3 8 0 11l239 219c12 11 31 11 43 -1zM182 214l96 -96c3 -3 3 -8 0 -12c-2 -1 -4 -2 -6 -2s-4 1 -6 2
l-6 7l-75 -75l2 -3c2 -1 2 -3 2 -5s0 -4 -2 -6l-77 -77c-7 -7 -16 -11 -27 -11s-20 4 -28 11l-44 44c-7 8 -11 17 -11 28c0 10 4 20 11 27l77 77c3 3 8 3 11 0l3 -2l75 75l-7 6c-3 4 -3 9 0 12s8 3 12 0zM99 -41l71 71l-76 76l-71 -71c-5 -4 -7 -10 -7 -16s2 -12 7 -16
l44 -44c8 -9 23 -9 32 0zM174 49l17 17l-61 61l-17 -17zM202 77l18 18l-61 61l-18 -18zM231 106l18 18l-61 61l-18 -18z" />
    <glyph glyph-name="sword-laser-alt" unicode="&#xe03c;" 
d="M503 439c12 -12 12 -31 1 -43l-168 -182c-1 -2 -4 -3 -6 -3s-4 1 -5 2c-3 3 -4 9 -1 12l168 182c5 6 5 15 0 21c-6 5 -15 5 -21 0l-234 -215c-3 -3 -8 -2 -11 1s-3 8 1 11l233 215c12 11 31 11 43 -1zM297 192c9 0 18 -6 21 -14c4 -9 2 -19 -5 -25l-206 -206
c-7 -7 -17 -11 -27 -11s-19 4 -27 11l-42 43c-15 14 -15 38 0 53l142 142c4 5 10 7 16 7h128zM22 32c-8 -8 -8 -22 0 -31l95 95l-16 15zM33 -10l21 -21l95 95l-21 21zM96 -42l79 80l-15 15l-95 -95c9 -8 23 -8 31 0zM302 164c3 3 2 7 1 8c0 1 -2 4 -6 4h-128
c-2 0 -4 -1 -5 -2l-51 -51l73 -74z" />
    <glyph glyph-name="swords-laser" unicode="&#xe03d;" horiz-adv-x="640" 
d="M346 324c-3 -3 -8 -3 -11 0s-3 8 1 11l113 105c12 11 31 11 43 -1s12 -31 1 -43l-105 -113c-1 -2 -3 -3 -5 -3s-4 1 -6 2c-3 3 -3 8 0 11l104 114c5 6 5 15 0 21c-6 5 -15 5 -21 0zM618 43c7 -7 11 -17 11 -27s-4 -19 -11 -27l-43 -42c-7 -7 -17 -11 -26 -11
c-10 0 -20 4 -27 11l-142 142c-5 4 -7 10 -7 16v128c0 9 6 18 14 21c9 4 19 2 25 -5zM391 100l51 -51l74 73l-115 116c-2 2 -3 2 -5 2c-1 0 -2 0 -3 -1c-1 0 -4 -2 -4 -6v-128c0 -2 1 -4 2 -5zM533 -42c8 -8 22 -8 31 0l-95 95l-15 -16zM575 -31l21 21l-95 95l-21 -21z
M607 1c4 4 6 10 6 15c0 6 -2 12 -6 16l-80 79l-15 -15zM165 128c9 0 16 -7 16 -16s-7 -16 -16 -16s-16 7 -16 16s7 16 16 16zM199 222c8 -3 14 -12 14 -21v-127c0 -7 -2 -12 -7 -17l-111 -110c-7 -7 -16 -11 -26 -11v0c-10 0 -20 4 -27 11l-42 42c-15 15 -15 39 0 54
l100 100c-9 15 -8 34 5 47c13 12 33 14 47 5l22 22c6 7 16 9 25 5zM197 74v127c0 4 -3 6 -4 6c-1 1 -5 2 -8 -1l-32 -33l-6 6c-4 4 -9 6 -15 6s-11 -2 -15 -6c-9 -9 -9 -23 -1 -31l6 -6l-111 -111c-8 -8 -8 -22 0 -31l42 -42c9 -8 23 -8 31 0l111 111c1 1 2 3 2 5zM158 428
c-6 5 -15 5 -21 0c-5 -6 -5 -15 0 -21l214 -234c3 -3 3 -8 0 -11c-2 -1 -3 -2 -5 -2c-3 0 -5 1 -6 3l-215 233c-11 12 -11 31 1 43s31 12 43 1l182 -168c3 -3 3 -8 0 -11c-2 -3 -8 -3 -11 0zM282 187c3 3 8 3 11 0s4 -8 1 -11l-43 -47c-2 -1 -4 -2 -6 -2s-4 0 -5 2
c-4 3 -4 8 -1 11z" />
    <glyph glyph-name="telescope" unicode="&#xe03e;" horiz-adv-x="640" 
d="M638 238c6 -14 -4 -27 -12 -30l-112 -46c-14 -6 -26 3 -30 11l-65 -22c-6 -2 -10 2 -11 4c-1 5 1 9 5 11l65 22l-76 182c-6 14 4 27 12 31l112 46c11 4 26 -2 31 -13zM620 223c2 1 5 5 3 9l-81 196c-1 2 -5 6 -10 4l-112 -46c0 -1 -6 -4 -3 -9l81 -196c1 -3 7 -5 10 -4z
M243 99c2 -4 0 -9 -5 -10l-97 -34c-12 -4 -25 2 -30 13l-5 13l-54 -23c-3 -1 -7 -1 -9 -1c-9 0 -19 6 -22 14l-19 46c-1 3 -2 7 -2 9c0 9 6 19 14 22l54 22l-5 13c-5 12 1 25 13 31l293 143c4 2 9 0 11 -4c2 -3 0 -8 -4 -10l-293 -144c-4 -2 -6 -6 -5 -10l8 -20v0v0l40 -95
c1 -4 6 -5 10 -4l97 34c4 1 9 -1 10 -5zM45 73l54 22l-24 61l-54 -23c-3 -1 -6 -5 -4 -10l19 -46c1 -3 6 -5 9 -4zM355 101l68 -154c2 -4 0 -11 -7 -11c-3 0 -6 2 -7 5l-68 151c-6 -2 -13 -4 -21 -4s-15 2 -21 4l-68 -151c-1 -3 -4 -5 -7 -5c-7 0 -9 7 -7 11l68 154
c-13 10 -21 26 -21 43c0 31 25 56 56 56s56 -25 56 -56c0 -17 -8 -33 -21 -43zM320 104c22 0 40 18 40 40s-18 40 -40 40s-40 -18 -40 -40s18 -40 40 -40z" />
    <glyph glyph-name="temperature-arrow-down" unicode="&#xe03f;" 
d="M120 95c23 -4 40 -23 40 -47c0 -26 -22 -48 -48 -48s-48 22 -48 48c0 24 17 43 40 47v57c0 4 4 8 8 8s8 -4 8 -8v-57zM112 16c18 0 32 14 32 32s-14 32 -32 32s-32 -14 -32 -32s14 -32 32 -32zM192 368v-242c20 -21 32 -48 32 -78c0 -62 -50 -112 -112 -112
s-112 50 -112 112c0 30 12 57 32 78v242c0 44 36 80 80 80s80 -36 80 -80zM208 48c0 25 -10 48 -27 66l-5 5v249c0 35 -29 64 -64 64s-64 -29 -64 -64v-249l-5 -5c-17 -18 -27 -41 -27 -66c0 -53 43 -96 96 -96s96 43 96 96zM290 58c-3 3 -3 9 0 12c2 1 4 2 6 2s4 -1 6 -2
l74 -75v413c0 4 4 8 8 8s8 -4 8 -8v-413l74 75c3 3 9 3 12 0s3 -9 0 -12l-88 -88c-3 -3 -9 -3 -12 0z" />
    <glyph glyph-name="temperature-arrow-up" unicode="&#xe040;" 
d="M120 95c23 -4 40 -23 40 -47c0 -26 -22 -48 -48 -48s-48 22 -48 48c0 24 17 43 40 47v281c0 4 4 8 8 8s8 -4 8 -8v-281zM112 16c18 0 32 14 32 32s-14 32 -32 32s-32 -14 -32 -32s14 -32 32 -32zM192 368v-242c20 -21 32 -48 32 -78c0 -62 -50 -112 -112 -112
s-112 50 -112 112c0 30 12 57 32 78v242c0 44 36 80 80 80s80 -36 80 -80zM208 48c0 25 -10 48 -27 66l-5 5v249c0 35 -29 64 -64 64s-64 -29 -64 -64v-249l-5 -5c-17 -18 -27 -41 -27 -66c0 -53 43 -96 96 -96s96 43 96 96zM478 326c3 -3 3 -9 0 -12c-2 -1 -4 -2 -6 -2
s-4 1 -6 2l-74 75v-413c0 -4 -4 -8 -8 -8s-8 4 -8 8v413l-74 -75c-3 -3 -9 -3 -12 0s-3 9 0 12l88 88c3 3 9 3 12 0z" />
    <glyph glyph-name="trailer" unicode="&#xe041;" horiz-adv-x="640" 
d="M80 360c4 0 8 -4 8 -8v-160c0 -4 -4 -8 -8 -8s-8 4 -8 8v160c0 4 4 8 8 8zM184 223c0 -5 -4 -8 -8 -8s-8 3 -8 8v129c0 4 4 8 8 8s8 -4 8 -8v-129zM176 128c44 0 80 -36 80 -80s-36 -80 -80 -80s-80 36 -80 80s36 80 80 80zM176 -16c35 0 64 29 64 64s-29 64 -64 64
s-64 -29 -64 -64s29 -64 64 -64zM472 128c0 -4 -4 -8 -8 -8s-8 4 -8 8v224c0 4 4 8 8 8s8 -4 8 -8v-224zM376 128c0 -4 -4 -8 -8 -8s-8 4 -8 8v224c0 4 4 8 8 8s8 -4 8 -8v-224zM632 80c4 0 8 -4 8 -8s-4 -8 -8 -8h-344c-4 0 -8 4 -8 8s4 8 8 8h216c13 0 24 11 24 24v272
c0 13 -11 24 -24 24h-464c-13 0 -24 -11 -24 -24v-272c0 -13 11 -24 24 -24h24c4 0 8 -4 8 -8s-4 -8 -8 -8h-24c-22 0 -40 18 -40 40v272c0 22 18 40 40 40h464c22 0 40 -18 40 -40v-272c0 -9 -4 -17 -9 -24h97zM280 352v-160c0 -4 -4 -8 -8 -8s-8 4 -8 8v160c0 4 4 8 8 8
s8 -4 8 -8z" />
    <glyph glyph-name="transporter" unicode="&#xe042;" 
d="M248 136c0 4 4 8 8 8s8 -4 8 -8v-96c0 -4 -4 -8 -8 -8s-8 4 -8 8v96zM256 352c-26 0 -48 22 -48 48s22 48 48 48s48 -22 48 -48s-22 -48 -48 -48zM256 432c-18 0 -32 -14 -32 -32s14 -32 32 -32s32 14 32 32s-14 32 -32 32zM128 160c-7 0 -14 2 -20 7
c-14 12 -16 32 -5 46l71 84c12 15 30 23 49 23h66c19 0 37 -8 49 -23l71 -85c11 -13 9 -33 -5 -45c-6 -5 -13 -7 -20 -7c-9 0 -18 4 -25 11l-31 38v-169c0 -4 -4 -8 -8 -8s-8 4 -8 8v169c0 6 3 12 9 15c11 5 18 -3 19 -5l32 -37c5 -7 15 -8 22 -2c7 5 8 15 2 22l-70 85
c-9 11 -23 17 -37 17h-66c-14 0 -28 -6 -37 -17l-70 -85c-6 -7 -5 -17 2 -22c6 -6 16 -5 22 2l32 37c1 2 8 10 19 5c6 -3 9 -9 9 -15v-169c0 -4 -4 -8 -8 -8s-8 4 -8 8v169l-31 -37c-7 -8 -16 -12 -25 -12zM504 408c4 0 8 -4 8 -8s-4 -8 -8 -8h-32v-32c0 -4 -4 -8 -8 -8
s-8 4 -8 8v32h-32c-4 0 -8 4 -8 8s4 8 8 8h32v32c0 4 4 8 8 8s8 -4 8 -8v-32h32zM376 0c22 0 40 -18 40 -40v-16c0 -4 -4 -8 -8 -8s-8 4 -8 8v16c0 13 -11 24 -24 24h-240c-13 0 -24 -11 -24 -24v-16c0 -4 -4 -8 -8 -8s-8 4 -8 8v16c0 22 18 40 40 40h240zM88 344
c4 0 8 -4 8 -8s-4 -8 -8 -8h-32v-32c0 -4 -4 -8 -8 -8s-8 4 -8 8v32h-32c-4 0 -8 4 -8 8s4 8 8 8h32v32c0 4 4 8 8 8s8 -4 8 -8v-32h32z" />
    <glyph glyph-name="transporter-1" unicode="&#xe043;" 
d="M320 128c4 0 8 -4 8 -8s-4 -8 -8 -8h-128c-4 0 -8 4 -8 8s4 8 8 8h128zM128 160c-7 0 -14 2 -20 7c-14 12 -16 32 -5 46l71 84c12 15 30 23 49 23h66c19 0 37 -8 49 -23l71 -85c11 -13 9 -33 -5 -45c-6 -5 -13 -7 -20 -7c-9 0 -18 4 -25 11l-31 38v-41c0 -4 -4 -8 -8 -8
s-8 4 -8 8v41c0 6 3 12 9 15c11 5 18 -3 19 -5l32 -37c5 -7 15 -8 22 -2c7 5 8 15 2 22l-70 85c-9 11 -23 17 -37 17h-66c-14 0 -28 -6 -37 -17l-70 -85c-6 -7 -5 -17 2 -22c6 -6 16 -5 22 2l32 37c1 2 8 10 19 5c6 -3 9 -9 9 -15v-41c0 -4 -4 -8 -8 -8s-8 4 -8 8v41
l-31 -37c-7 -8 -16 -12 -25 -12zM256 352c-26 0 -48 22 -48 48s22 48 48 48s48 -22 48 -48s-22 -48 -48 -48zM256 432c-18 0 -32 -14 -32 -32s14 -32 32 -32s32 14 32 32s-14 32 -32 32zM504 280c4 0 8 -4 8 -8s-4 -8 -8 -8h-32v-32c0 -4 -4 -8 -8 -8s-8 4 -8 8v32h-32
c-4 0 -8 4 -8 8s4 8 8 8h32v32c0 4 4 8 8 8s8 -4 8 -8v-32h32zM376 0c22 0 40 -18 40 -40v-16c0 -4 -4 -8 -8 -8s-8 4 -8 8v16c0 13 -11 24 -24 24h-240c-13 0 -24 -11 -24 -24v-16c0 -4 -4 -8 -8 -8s-8 4 -8 8v16c0 22 18 40 40 40h240zM320 64c4 0 8 -4 8 -8s-4 -8 -8 -8
h-128c-4 0 -8 4 -8 8s4 8 8 8h128zM88 88c4 0 8 -4 8 -8s-4 -8 -8 -8h-32v-32c0 -4 -4 -8 -8 -8s-8 4 -8 8v32h-32c-4 0 -8 4 -8 8s4 8 8 8h32v32c0 4 4 8 8 8s8 -4 8 -8v-32h32z" />
    <glyph glyph-name="transporter-2" unicode="&#xe044;" 
d="M320 128c4 0 8 -4 8 -8s-4 -8 -8 -8h-128c-4 0 -8 4 -8 8s4 8 8 8h128zM104 176c-4 0 -8 4 -8 8s4 8 8 8h304c4 0 8 -4 8 -8s-4 -8 -8 -8h-304zM256 352c-26 0 -48 22 -48 48s22 48 48 48s48 -22 48 -48s-22 -48 -48 -48zM256 432c-18 0 -32 -14 -32 -32s14 -32 32 -32
s32 14 32 32s-14 32 -32 32zM130 224c-7 0 -10 8 -6 13l50 60c12 15 30 23 49 23h66c19 0 37 -8 49 -23l50 -60c4 -5 1 -13 -6 -13c-2 0 -5 1 -6 3l-50 60c-9 11 -23 17 -37 17h-66c-14 0 -28 -6 -37 -17l-50 -60c-1 -2 -4 -3 -6 -3zM320 64c4 0 8 -4 8 -8s-4 -8 -8 -8h-128
c-4 0 -8 4 -8 8s4 8 8 8h128zM376 0c22 0 40 -18 40 -40v-16c0 -4 -4 -8 -8 -8s-8 4 -8 8v16c0 13 -11 24 -24 24h-240c-13 0 -24 -11 -24 -24v-16c0 -4 -4 -8 -8 -8s-8 4 -8 8v16c0 22 18 40 40 40h240zM504 88c4 0 8 -4 8 -8s-4 -8 -8 -8h-32v-32c0 -4 -4 -8 -8 -8
s-8 4 -8 8v32h-32c-4 0 -8 4 -8 8s4 8 8 8h32v32c0 4 4 8 8 8s8 -4 8 -8v-32h32zM88 408c4 0 8 -4 8 -8s-4 -8 -8 -8h-32v-32c0 -4 -4 -8 -8 -8s-8 4 -8 8v32h-32c-4 0 -8 4 -8 8s4 8 8 8h32v32c0 4 4 8 8 8s8 -4 8 -8v-32h32z" />
    <glyph glyph-name="transporter-3" unicode="&#xe045;" 
d="M192 304c-4 0 -8 4 -8 8s4 8 8 8h128c4 0 8 -4 8 -8s-4 -8 -8 -8h-128zM256 352c-26 0 -48 22 -48 48s22 48 48 48s48 -22 48 -48s-22 -48 -48 -48zM256 432c-18 0 -32 -14 -32 -32s14 -32 32 -32s32 14 32 32s-14 32 -32 32zM504 408c4 0 8 -4 8 -8s-4 -8 -8 -8h-32v-32
c0 -4 -4 -8 -8 -8s-8 4 -8 8v32h-32c-4 0 -8 4 -8 8s4 8 8 8h32v32c0 4 4 8 8 8s8 -4 8 -8v-32h32zM136 240c-4 0 -8 4 -8 8s4 8 8 8h240c4 0 8 -4 8 -8s-4 -8 -8 -8h-240zM192 112c-4 0 -8 4 -8 8s4 8 8 8h128c4 0 8 -4 8 -8s-4 -8 -8 -8h-128zM408 192c4 0 8 -4 8 -8
s-4 -8 -8 -8h-304c-4 0 -8 4 -8 8s4 8 8 8h304zM192 48c-4 0 -8 4 -8 8s4 8 8 8h128c4 0 8 -4 8 -8s-4 -8 -8 -8h-128zM376 0c22 0 40 -18 40 -40v-16c0 -4 -4 -8 -8 -8s-8 4 -8 8v16c0 13 -11 24 -24 24h-240c-13 0 -24 -11 -24 -24v-16c0 -4 -4 -8 -8 -8s-8 4 -8 8v16
c0 22 18 40 40 40h240zM88 312c4 0 8 -4 8 -8s-4 -8 -8 -8h-32v-32c0 -4 -4 -8 -8 -8s-8 4 -8 8v32h-32c-4 0 -8 4 -8 8s4 8 8 8h32v32c0 4 4 8 8 8s8 -4 8 -8v-32h32z" />
    <glyph glyph-name="transporter-empty" unicode="&#xe046;" horiz-adv-x="320" 
d="M280 0c22 0 40 -18 40 -40v-16c0 -4 -4 -8 -8 -8s-8 4 -8 8v16c0 13 -11 24 -24 24h-240c-13 0 -24 -11 -24 -24v-16c0 -4 -4 -8 -8 -8s-8 4 -8 8v16c0 22 18 40 40 40h240z" />
    <glyph glyph-name="ufo" unicode="&#xe047;" horiz-adv-x="640" 
d="M512 96c-9 0 -16 7 -16 16s7 16 16 16s16 -7 16 -16s-7 -16 -16 -16zM154 195v3c-1 6 -2 12 -2 19c0 92 75 167 168 167s168 -75 168 -167c0 -7 -1 -13 -2 -19v-3c-1 -5 -4 -10 -9 -12c-48 -26 -102 -39 -157 -39s-109 13 -157 39c-5 2 -8 7 -9 12zM320 368
c-84 0 -152 -68 -152 -151c0 -7 1 -14 2 -20c47 -25 99 -37 150 -37s103 12 150 37c1 6 2 13 2 20c0 83 -68 151 -152 151zM304 80c0 9 7 16 16 16s16 -7 16 -16s-7 -16 -16 -16s-16 7 -16 16zM112 112c0 9 7 16 16 16s16 -7 16 -16s-7 -16 -16 -16s-16 7 -16 16zM531 225
c70 -24 109 -59 109 -97c0 -72 -141 -128 -320 -128s-320 56 -320 128c0 38 39 73 109 97c5 2 9 -1 11 -5c1 -4 -1 -9 -5 -10c-63 -22 -99 -52 -99 -82c0 -61 139 -112 304 -112s304 51 304 112c0 30 -36 60 -99 82c-4 1 -6 6 -5 10c2 4 6 7 11 5z" />
    <glyph glyph-name="ufo-beam" unicode="&#xe048;" horiz-adv-x="576" 
d="M483 323c60 -21 93 -50 93 -83c0 -63 -126 -112 -288 -112s-288 49 -288 112c0 33 33 62 93 83c5 2 9 -1 11 -5c1 -4 -1 -8 -5 -10c-53 -18 -83 -43 -83 -68c0 -46 109 -96 272 -96s272 50 272 96c0 25 -30 50 -83 68c-4 2 -6 6 -5 10c2 5 6 7 11 5zM272 192
c0 9 7 16 16 16s16 -7 16 -16s-7 -16 -16 -16s-16 7 -16 16zM480 224c-9 0 -16 7 -16 16s7 16 16 16s16 -7 16 -16s-7 -16 -16 -16zM145 285v3c-1 5 -2 10 -2 16c0 79 65 144 145 144s145 -65 145 -144c0 -6 -1 -11 -2 -16v-3c-1 -5 -4 -10 -9 -12c-41 -22 -87 -33 -134 -33
s-93 11 -134 33c-5 2 -8 7 -9 12zM288 432c-71 0 -129 -57 -129 -128c0 -6 1 -11 2 -17c40 -21 83 -31 127 -31s87 10 127 31c1 6 2 11 2 17c0 71 -58 128 -129 128zM80 240c0 9 7 16 16 16s16 -7 16 -16s-7 -16 -16 -16s-16 7 -16 16zM105 108c2 4 7 5 11 3s5 -7 3 -11
l-80 -160c-1 -2 -4 -4 -7 -4c-1 0 -2 0 -4 1c-4 2 -5 7 -3 11zM471 108l80 -160c2 -4 1 -9 -3 -11c-2 -1 -3 -1 -4 -1c-3 0 -6 2 -7 4l-80 160c-2 4 -1 9 3 11s9 1 11 -3z" />
    <glyph glyph-name="user-alien" unicode="&#xe04a;" horiz-adv-x="448" 
d="M252 192c-7 0 -12 5 -12 12v8c0 33 27 60 60 60h24c7 0 12 -5 12 -12v-8c0 -33 -27 -60 -60 -60h-24zM256 212v-4h20c24 0 44 20 44 44v4h-20c-24 0 -44 -20 -44 -44zM196 192h-24c-33 0 -60 27 -60 60v8c0 7 5 12 12 12h24c33 0 60 -27 60 -60v-8c0 -7 -5 -12 -12 -12z
M128 252c0 -24 20 -44 44 -44h20v4c0 24 -20 44 -44 44h-20v-4zM207 70c-42 32 -143 118 -143 204c0 108 72 174 160 174s160 -66 160 -174c0 -86 -101 -172 -143 -204c-5 -4 -11 -6 -17 -6s-12 2 -17 6zM224 432c-85 0 -144 -65 -144 -158c0 -80 104 -167 136 -191
c3 -2 5 -3 8 -3s5 1 8 3c32 24 136 111 136 191c0 93 -59 158 -144 158zM317 96c73 -3 131 -59 131 -128c0 -18 -15 -32 -34 -32h-380c-19 0 -34 14 -34 32c0 69 58 125 131 128c4 0 9 -3 9 -8c0 -4 -4 -8 -8 -8c-65 -2 -116 -51 -116 -112c0 -9 8 -16 18 -16h380
c10 0 18 7 18 16c0 61 -51 110 -116 112c-4 0 -8 4 -8 8c0 5 4 8 9 8z" />
    <glyph glyph-name="user-robot" unicode="&#xe04b;" horiz-adv-x="448" 
d="M288 248c-22 0 -40 18 -40 40s18 40 40 40s40 -18 40 -40s-18 -40 -40 -40zM288 312c-13 0 -24 -11 -24 -24s11 -24 24 -24s24 11 24 24s-11 24 -24 24zM200 288c0 -22 -18 -40 -40 -40s-40 18 -40 40s18 40 40 40s40 -18 40 -40zM136 288c0 -13 11 -24 24 -24
s24 11 24 24s-11 24 -24 24s-24 -11 -24 -24zM240 184c-4 0 -8 4 -8 8s4 8 8 8h32c4 0 8 -4 8 -8s-4 -8 -8 -8h-32zM168 192c0 4 4 8 8 8h32c4 0 8 -4 8 -8s-4 -8 -8 -8h-32c-4 0 -8 4 -8 8zM288 48c26 0 48 -22 48 -48v-56c0 -4 -4 -8 -8 -8s-8 4 -8 8v56
c0 18 -14 32 -32 32h-128c-18 0 -32 -14 -32 -32v-56c0 -4 -4 -8 -8 -8s-8 4 -8 8v56c0 26 22 48 48 48h128zM352 96c53 0 96 -43 96 -96v-32c0 -18 -14 -32 -32 -32h-40c-4 0 -8 4 -8 8s4 8 8 8h40c9 0 16 7 16 16v32c0 44 -36 80 -80 80h-256c-44 0 -80 -36 -80 -80v-32
c0 -9 7 -16 16 -16h40c4 0 8 -4 8 -8s-4 -8 -8 -8h-40c-18 0 -32 14 -32 32v32c0 53 43 96 96 96h256zM416 320c18 0 32 -14 32 -32v-64c0 -18 -14 -32 -32 -32h-16c-4 0 -8 4 -8 8s4 8 8 8h16c9 0 16 7 16 16v64c0 9 -7 16 -16 16h-16c-4 0 -8 4 -8 8s4 8 8 8h16zM272 0
c9 0 16 -7 16 -16s-7 -16 -16 -16s-16 7 -16 16s7 16 16 16zM144 128c-35 0 -64 29 -64 64v128c0 35 29 64 64 64h72v56c0 4 4 8 8 8s8 -4 8 -8v-56h72c35 0 64 -29 64 -64v-128c0 -35 -29 -64 -64 -64h-160zM144 200c4 0 8 -4 8 -8s-4 -8 -8 -8h-47c4 -23 23 -40 47 -40
h160c24 0 43 17 47 40h-47c-4 0 -8 4 -8 8s4 8 8 8h48v120c0 26 -22 48 -48 48h-160c-26 0 -48 -22 -48 -48v-120h48zM32 192c-18 0 -32 14 -32 32v64c0 18 14 32 32 32h16c4 0 8 -4 8 -8s-4 -8 -8 -8h-16c-9 0 -16 -7 -16 -16v-64c0 -9 7 -16 16 -16h16c4 0 8 -4 8 -8
s-4 -8 -8 -8h-16zM184 0c4 0 8 -4 8 -8v-48c0 -4 -4 -8 -8 -8s-8 4 -8 8v48c0 4 4 8 8 8z" />
    <glyph glyph-name="user-visor" unicode="&#xe04c;" horiz-adv-x="448" 
d="M273 144c96 0 175 -75 175 -168c0 -22 -19 -40 -41 -40h-366c-22 0 -41 18 -41 40c0 93 79 168 175 168h98zM407 -48c14 0 25 11 25 24c0 84 -71 152 -159 152h-98c-88 0 -159 -68 -159 -152c0 -13 11 -24 25 -24h366zM319 88c4 0 7 -2 9 -5c20 -26 31 -58 32 -95
c0 -5 -3 -10 -8 -11l-4 -1c-4 0 -7 2 -10 5c-7 11 -12 17 -15 20c-5 -2 -14 -8 -32 -22c-4 -3 -8 -3 -13 -1c-4 2 -6 7 -6 12c4 38 17 69 38 94c2 2 5 4 9 4zM330 17c3 -3 7 -8 13 -16c-3 26 -11 49 -24 68c-16 -19 -25 -43 -30 -71c16 11 26 18 32 20l7 1zM102 285
c-13 7 -22 20 -22 35v32c0 22 17 39 39 40c23 34 61 56 105 56s82 -22 105 -56c22 -1 39 -18 39 -40v-32c0 -15 -9 -28 -22 -35c-15 -53 -64 -93 -122 -93s-107 40 -122 93zM224 208c48 0 87 30 104 72h-208c17 -42 56 -72 104 -72zM224 432c-34 0 -64 -16 -85 -40h170
c-21 24 -51 40 -85 40zM96 352v-32c0 -13 11 -24 24 -24h208c13 0 24 11 24 24v32c0 13 -11 24 -24 24h-208c-13 0 -24 -11 -24 -24zM128 328c-4 0 -8 4 -8 8s4 8 8 8h192c4 0 8 -4 8 -8s-4 -8 -8 -8h-192z" />
    <glyph glyph-name="vacuum" unicode="&#xe04d;" horiz-adv-x="640" 
d="M368 96c44 0 80 -36 80 -80s-36 -80 -80 -80s-80 36 -80 80s36 80 80 80zM368 -48c35 0 64 29 64 64s-29 64 -64 64s-64 -29 -64 -64s29 -64 64 -64zM640 336c0 -51 -35 -95 -83 -108c12 -23 19 -48 19 -76v-176c0 -22 -18 -40 -40 -40h-88c-4 0 -8 4 -8 8s4 8 8 8h88
c13 0 24 11 24 24v176c0 84 -68 152 -152 152h-16c-13 0 -24 -11 -24 -24v-152c0 -4 -4 -8 -8 -8s-8 4 -8 8v152c0 22 18 40 40 40h16c59 0 111 -31 141 -78c44 10 75 49 75 94c0 53 -43 96 -96 96h-193c-57 0 -105 -39 -117 -94l-72 -322h30c13 0 24 -11 24 -24v-32
c0 -13 -11 -24 -24 -24h-152c-13 0 -24 11 -24 24c0 31 25 56 56 56h74l72 326c14 62 68 106 133 106h193c62 0 112 -50 112 -112zM176 0h-120c-22 0 -40 -18 -40 -40c0 -4 4 -8 8 -8h152c4 0 8 4 8 8v32c0 4 -4 8 -8 8z" />
    <glyph glyph-name="vacuum-robot" unicode="&#xe04e;" 
d="M256 432c133 0 240 -107 240 -240s-107 -240 -240 -240s-240 107 -240 240s107 240 240 240zM256 -32c124 0 224 100 224 224s-100 224 -224 224s-224 -100 -224 -224s100 -224 224 -224zM256 360c93 0 168 -75 168 -168c0 -53 -24 -102 -67 -134c-2 -1 -3 -2 -5 -2
s-5 1 -6 3c-3 4 -2 9 1 11c39 29 61 74 61 122c0 84 -68 152 -152 152c-48 0 -93 -22 -122 -61c-2 -3 -7 -4 -11 -1c-3 2 -4 7 -1 11c32 42 81 67 134 67zM133 134l64 -64c4 -4 4 -9 0 -12c-1 -1 -3 -2 -5 -2s-4 1 -6 2l-64 64c-3 3 -3 9 0 12s8 3 11 0zM213 213l64 -64
c3 -3 3 -9 0 -12c-2 -1 -4 -2 -6 -2s-4 1 -6 2l-64 64c-3 3 -3 9 0 12s9 3 12 0zM141 205l128 -128c3 -3 3 -8 0 -11c-1 -2 -4 -3 -6 -3s-4 1 -5 3l-128 128c-3 3 -3 8 0 11s8 3 11 0z" />
    <glyph glyph-name="window-frame" unicode="&#xe04f;" 
d="M504 -48c4 0 8 -4 8 -8s-4 -8 -8 -8h-496c-4 0 -8 4 -8 8s4 8 8 8h24v456c0 22 18 40 40 40h368c22 0 40 -18 40 -40v-456h24zM440 432h-176v-232h200v208c0 13 -11 24 -24 24zM48 408v-208h200v232h-176c-13 0 -24 -11 -24 -24zM48 -48h200v232h-200v-232zM264 -48h200
v232h-200v-232z" />
    <glyph glyph-name="window-frame-open" unicode="&#xe050;" 
d="M504 -48c4 0 8 -4 8 -8s-4 -8 -8 -8h-496c-4 0 -8 4 -8 8s4 8 8 8h24v168c0 4 4 8 8 8s8 -4 8 -8v-168h416v168c0 4 4 8 8 8s8 -4 8 -8v-168h24zM40 160c-4 0 -8 4 -8 8v240c0 22 18 40 40 40h368c22 0 40 -18 40 -40v-240c0 -4 -4 -8 -8 -8h-432zM264 432v-256h200v232
c0 13 -11 24 -24 24h-176zM48 408v-232h200v256h-176c-13 0 -24 -11 -24 -24z" />
    <glyph glyph-name="coffin-cross" unicode="&#xe051;" horiz-adv-x="384" 
d="M375 333c8 -8 11 -20 8 -31l-87 -342c-4 -14 -17 -24 -32 -24h-144c-15 0 -28 10 -32 24l-87 342c-3 11 0 23 8 31l108 106c6 6 15 9 23 9h104c8 0 17 -3 23 -9zM280 -36l88 342c1 6 -1 11 -5 15l-107 106c-4 3 -8 5 -12 5h-104c-4 0 -8 -2 -12 -5l-107 -106
c-4 -4 -6 -9 -5 -15l88 -342c1 -7 8 -12 16 -12h144c8 0 15 5 16 12zM280 264c4 0 8 -4 8 -8s-4 -8 -8 -8h-80v-144c0 -4 -4 -8 -8 -8s-8 4 -8 8v144h-80c-4 0 -8 4 -8 8s4 8 8 8h80v80c0 4 4 8 8 8s8 -4 8 -8v-80h80z" />
    <glyph glyph-name="folder-arrow-down" unicode="&#xe053;" 
d="M464 352c26 0 48 -22 48 -48v-288c0 -26 -22 -48 -48 -48h-416c-26 0 -48 22 -48 48v352c0 26 22 48 48 48h147c8 0 16 -3 22 -9l55 -55h192zM496 16v288c0 18 -14 32 -32 32h-199l-54 55c-6 6 -14 9 -23 9h-140c-18 0 -32 -14 -32 -32v-352c0 -18 14 -32 32 -32h416
c18 0 32 14 32 32zM250 58l-96 96c-3 3 -3 9 0 12c2 1 4 2 6 2s4 -1 6 -2l82 -83v173c0 4 4 8 8 8s8 -4 8 -8v-173l82 83c3 3 9 3 12 0s3 -9 0 -12l-96 -96c-2 -1 -4 -2 -6 -2s-4 1 -6 2z" />
    <glyph glyph-name="folder-arrow-up" unicode="&#xe054;" 
d="M464 352c26 0 48 -22 48 -48v-288c0 -26 -22 -48 -48 -48h-416c-26 0 -48 22 -48 48v352c0 26 22 48 48 48h147c8 0 16 -3 22 -9l55 -55h192zM496 16v288c0 18 -14 32 -32 32h-199l-54 55c-6 6 -14 9 -23 9h-140c-18 0 -32 -14 -32 -32v-352c0 -18 14 -32 32 -32h416
c18 0 32 14 32 32zM262 262l96 -96c3 -3 3 -9 0 -12c-2 -1 -4 -2 -6 -2s-4 1 -6 2l-82 83v-173c0 -4 -4 -8 -8 -8s-8 4 -8 8v173l-82 -83c-3 -3 -9 -3 -12 0s-3 9 0 12l96 96c2 1 4 2 6 2s4 -1 6 -2z" />
    <glyph glyph-name="user-unlock" unicode="&#xe058;" horiz-adv-x="640" 
d="M224 192c-71 0 -128 57 -128 128s57 128 128 128s128 -57 128 -128s-57 -128 -128 -128zM224 432c-62 0 -112 -50 -112 -112s50 -112 112 -112s112 50 112 112s-50 112 -112 112zM320 -48c4 0 8 -4 8 -8s-4 -8 -8 -8h-279c-22 0 -41 18 -41 40c0 93 79 168 175 168h98
c17 0 33 -2 49 -7c4 -1 7 -5 6 -10c-2 -4 -6 -6 -10 -5c-15 4 -30 6 -45 6h-98c-88 0 -159 -68 -159 -152c0 -13 11 -24 25 -24h279zM576 160c35 0 64 -29 64 -64v-96c0 -35 -29 -64 -64 -64h-160c-35 0 -64 29 -64 64v96c0 35 29 64 64 64h16v80c0 35 29 64 64 64
s64 -29 64 -64v-8c0 -4 -4 -8 -8 -8s-8 4 -8 8v8c0 26 -22 48 -48 48s-48 -22 -48 -48v-80h128zM624 0v96c0 26 -22 48 -48 48h-160c-26 0 -48 -22 -48 -48v-96c0 -26 22 -48 48 -48h160c26 0 48 22 48 48zM496 64c9 0 16 -7 16 -16s-7 -16 -16 -16s-16 7 -16 16s7 16 16 16
z" />
    <glyph glyph-name="bacteria" unicode="&#xe059;" horiz-adv-x="640" 
d="M128 256c18 0 32 -14 32 -32s-14 -32 -32 -32s-32 14 -32 32s14 32 32 32zM128 208c9 0 16 7 16 16s-7 16 -16 16s-16 -7 -16 -16s7 -16 16 -16zM208 328c13 0 24 -11 24 -24s-11 -24 -24 -24s-24 11 -24 24s11 24 24 24zM208 296c4 0 8 4 8 8s-4 8 -8 8s-8 -4 -8 -8
s4 -8 8 -8zM633 197c4 0 7 -4 7 -8s-4 -8 -8 -8h-1l-26 3c-3 -22 -9 -43 -17 -62l25 -11c4 -2 6 -7 5 -11c-2 -4 -7 -6 -11 -4l-26 11c-9 -19 -21 -37 -35 -53l21 -19c3 -3 4 -8 1 -12c-3 -3 -8 -3 -12 0l-21 19c-15 -15 -32 -28 -51 -39l15 -26c2 -3 0 -8 -3 -10
c-6 -3 -10 1 -11 3l-15 26c-18 -10 -38 -17 -60 -22l6 -29c0 -4 -3 -8 -7 -9c-7 -1 -9 5 -9 7l-5 28c-7 -1 -14 -2 -22 -3c-15 -1 -31 3 -44 10l-15 -21c-3 -4 -8 -5 -12 -2c-3 3 -4 8 -1 11l15 21c-16 13 -27 32 -29 55v6v1l-24 2c-4 1 -7 5 -7 9c1 5 5 8 9 7l24 -2
c5 23 20 43 41 54l-11 24c-1 4 0 9 4 11c4 1 9 0 11 -4l11 -25c5 1 11 2 16 3c16 1 30 6 43 14l-16 21c-3 3 -2 8 1 11c4 3 9 2 12 -1l16 -21c17 15 28 36 30 61l-25 3c-4 1 -7 5 -7 9c1 4 5 8 10 7l25 -4c5 20 18 36 34 47l-9 22c-2 4 0 8 4 10s9 0 11 -4l8 -21
c11 4 23 7 36 6s26 -6 36 -13l13 17c2 3 7 4 11 1c3 -2 4 -7 1 -11l-12 -16c17 -16 27 -39 25 -64c0 -1 -1 -2 -1 -3zM372 -16c118 9 211 101 220 219c2 35 -24 66 -59 69c-45 3 -67 -35 -69 -59c-5 -54 -47 -97 -102 -101c-33 -3 -59 -31 -59 -64c0 -32 27 -67 69 -64z
M236 242l16 -21c3 -3 2 -8 -1 -11c-4 -3 -9 -2 -12 1l-16 21c-17 -15 -28 -36 -30 -61l25 -3c4 -1 7 -5 7 -9c-1 -4 -5 -8 -9 -7l-26 4c-5 -20 -18 -36 -34 -47l9 -22c2 -4 0 -8 -4 -10s-9 0 -11 4l-8 21c-11 -4 -23 -7 -36 -6s-26 6 -36 13l-12 -17c-3 -3 -8 -4 -12 -1
c-3 2 -4 7 -1 11l12 16c-17 16 -27 39 -25 64c0 1 1 2 1 3l-26 2c-4 0 -7 4 -7 8s4 8 8 8h1l26 -3c3 22 9 43 17 62l-25 11c-4 2 -6 7 -4 11c1 4 6 6 10 4l26 -11c9 19 21 37 35 53l-21 19c-3 3 -4 8 -1 12c3 3 8 3 12 0l21 -19c15 15 32 28 51 39l-15 26c-2 3 0 8 4 10
c5 3 9 -1 10 -3l15 -26c18 10 38 17 60 22l-5 29c-1 4 2 8 6 9c7 1 9 -5 9 -7l5 -28c7 1 14 2 22 3c16 1 31 -3 44 -10l15 21c3 4 8 5 12 2c3 -3 4 -8 1 -11l-15 -21c16 -13 27 -32 29 -55v-6v-1l24 -2c4 -1 7 -5 7 -9c0 -5 -5 -8 -9 -7l-24 2c-5 -23 -20 -43 -41 -54
l11 -24c1 -4 0 -9 -4 -11c-4 -1 -9 0 -11 4l-11 25c-5 -1 -11 -2 -16 -3c-16 -1 -30 -6 -43 -14zM176 171c5 54 47 97 102 101c33 3 59 31 59 64c0 32 -27 67 -69 64c-118 -9 -211 -101 -220 -219c-2 -35 24 -66 59 -69c45 -3 68 35 69 59zM416 96c18 0 32 -14 32 -32
s-14 -32 -32 -32s-32 14 -32 32s14 32 32 32zM416 48c9 0 16 7 16 16s-7 16 -16 16s-16 -7 -16 -16s7 -16 16 -16z" />
    <glyph glyph-name="bacterium" unicode="&#xe05a;" horiz-adv-x="576" 
d="M538 287c4 -1 7 -5 6 -9c0 -2 -3 -8 -9 -7l-27 5c-4 -17 -12 -32 -23 -45l-12 -12l17 -22c2 -3 2 -8 -2 -11c-3 -2 -8 -2 -11 2l-17 22c-15 -10 -32 -16 -51 -18c-4 0 -7 -1 -11 -2l6 -27c0 -4 -2 -8 -7 -9c-6 -1 -9 5 -9 6l-6 27c-20 -5 -38 -16 -53 -30l20 -19
c4 -3 4 -8 1 -11s-8 -4 -11 -1l-21 19c-13 -16 -23 -35 -27 -56l29 -4c5 0 8 -4 7 -8c0 -4 -4 -8 -8 -7l-31 3c-2 -22 -9 -42 -23 -61l21 -19c3 -3 3 -8 0 -11c-2 -3 -7 -4 -11 -1l-20 20c-16 -16 -37 -27 -60 -31l2 -26c0 -4 -4 -8 -8 -8s-8 3 -8 7l-2 25
c-3 0 -33 -2 -66 20l-15 -20c-2 -3 -7 -4 -11 -1c-3 2 -4 7 -1 11l15 20c-9 8 -17 16 -22 27c-6 9 -10 20 -12 31l-26 -4c-7 -1 -9 5 -9 6c-1 4 2 8 6 9l26 5v17v0c1 11 3 21 4 32c1 6 3 11 4 17l-27 6c-4 1 -7 5 -6 9c1 5 5 7 9 6l27 -6c6 22 14 42 23 62l-26 12
c-4 2 -5 7 -3 11c1 4 6 5 10 3l26 -12c10 19 22 37 36 54l-23 19c-4 3 -4 8 -1 11c2 3 7 4 11 1l23 -19c14 17 30 32 47 45l-19 24c-2 3 -2 8 2 11c3 3 8 2 11 -1l18 -25c18 13 36 24 56 33l-13 28c-1 4 0 9 4 11s9 0 11 -4l12 -28c20 8 41 14 62 19l-6 30c-1 4 2 9 6 9
c5 1 9 -2 10 -6l5 -30c31 6 47 6 65 2l9 29c1 4 5 7 9 6c4 -2 7 -6 6 -10l-9 -29c9 -3 36 -14 53 -39l24 15c4 2 8 1 11 -3c2 -3 1 -8 -3 -10l-24 -15c1 0 12 -19 14 -44c0 -1 1 -9 -1 -21zM407 208c53 4 93 51 89 103c-3 38 -35 94 -103 89c-168 -13 -300 -145 -313 -313
c-2 -25 6 -50 23 -69c17 -20 40 -32 66 -34h7c50 0 92 39 96 89c5 73 62 130 135 135zM192 176c26 0 48 -22 48 -48s-22 -48 -48 -48s-48 22 -48 48s22 48 48 48zM192 96c18 0 32 14 32 32s-14 32 -32 32s-32 -14 -32 -32s14 -32 32 -32zM272 272c18 0 32 -14 32 -32
s-14 -32 -32 -32s-32 14 -32 32s14 32 32 32zM272 224c9 0 16 7 16 16s-7 16 -16 16s-16 -7 -16 -16s7 -16 16 -16z" />
    <glyph glyph-name="box-tissue" unicode="&#xe05b;" 
d="M464 224c26 0 48 -22 48 -48v-208c0 -18 -14 -32 -32 -32h-448c-18 0 -32 14 -32 32v208c0 26 22 48 48 48h16c4 0 8 -4 8 -8s-4 -8 -8 -8h-16c-18 0 -32 -14 -32 -32v-112h480v112c0 18 -14 32 -32 32h-16c-4 0 -8 4 -8 8s4 8 8 8h16zM496 -32v80h-480v-80
c0 -9 7 -16 16 -16h448c9 0 16 7 16 16zM128 144c-4 0 -7 3 -8 6l-64 288c0 3 0 5 2 7c1 2 4 3 6 3h141c34 0 64 -21 75 -53c8 -26 32 -43 59 -43h109c3 0 5 -1 6 -3c2 -2 2 -5 2 -8l-64 -192c-2 -3 -5 -5 -8 -5h-256zM205 432h-131l60 -272h244l59 176h-98
c-34 0 -64 21 -75 53c-8 26 -32 43 -59 43z" />
    <glyph glyph-name="hand-holding-medical" unicode="&#xe05c;" horiz-adv-x="576" 
d="M567 124c7 -10 10 -23 8 -35c-1 -13 -8 -24 -19 -32l-135 -99c-19 -14 -42 -22 -66 -22h-347c-4 0 -8 4 -8 8s4 8 8 8h347c20 0 41 7 57 19l135 99c7 5 11 13 13 21c1 9 -1 17 -6 24s-13 11 -21 13c-9 1 -17 -1 -24 -6l-122 -90h-123c-13 0 -24 11 -24 24s11 24 24 24h78
c13 0 24 9 26 20c1 7 -1 14 -6 19c-4 6 -11 9 -18 9h-160c-25 0 -50 -9 -69 -25l-49 -39h-58c-4 0 -8 4 -8 8s4 8 8 8h53l44 36c22 18 50 28 79 28h160c12 0 23 -5 30 -14c8 -9 11 -21 9 -33c-3 -19 -20 -33 -41 -33h-78c-4 0 -8 -4 -8 -8s4 -8 8 -8h118l117 87
c11 7 23 10 36 8c13 -1 24 -8 32 -19zM176 272c-18 0 -32 14 -32 32v32c0 18 14 32 32 32h48v48c0 18 14 32 32 32h32c18 0 32 -14 32 -32v-48h48c18 0 32 -14 32 -32v-32c0 -18 -14 -32 -32 -32h-48v-48c0 -18 -14 -32 -32 -32h-32c-18 0 -32 14 -32 32v48h-48zM160 336
v-32c0 -9 7 -16 16 -16h64v-64c0 -9 7 -16 16 -16h32c9 0 16 7 16 16v64h64c9 0 16 7 16 16v32c0 9 -7 16 -16 16h-64v64c0 9 -7 16 -16 16h-32c-9 0 -16 -7 -16 -16v-64h-64c-9 0 -16 -7 -16 -16z" />
    <glyph glyph-name="hand-sparkles" unicode="&#xe05d;" horiz-adv-x="640" 
d="M72 232v64h-64c-4 0 -8 4 -8 8s4 8 8 8h64v64c0 4 4 8 8 8s8 -4 8 -8v-64h64c4 0 8 -4 8 -8s-4 -8 -8 -8h-64v-64c0 -4 -4 -8 -8 -8s-8 4 -8 8zM632 24c4 0 8 -4 8 -8s-4 -8 -8 -8h-64v-64c0 -4 -4 -8 -8 -8s-8 4 -8 8v64h-64c-4 0 -8 4 -8 8s4 8 8 8h64v64c0 4 4 8 8 8
s8 -4 8 -8v-64h64zM304 32c-4 0 -8 4 -8 8v32h-32c-4 0 -8 4 -8 8s4 8 8 8h32v32c0 4 4 8 8 8s8 -4 8 -8v-32h32c4 0 8 -4 8 -8s-4 -8 -8 -8h-32v-32c0 -4 -4 -8 -8 -8zM456 184c-4 0 -8 4 -8 8v176c0 18 -14 32 -32 32s-32 -14 -32 -32v-176c0 -4 -4 -8 -8 -8s-8 4 -8 8
v208c0 18 -14 32 -32 32s-32 -14 -32 -32v-208c0 -4 -4 -7 -8 -8c-4 0 -8 3 -8 7c0 1 -16 117 -26 165c-2 17 -17 30 -34 28c-9 -1 -16 -5 -21 -11c-5 -7 -8 -14 -7 -22l6 -52c7 -63 10 -128 10 -192c0 -4 -2 -7 -5 -8s-7 0 -9 3l-60 77c-11 15 -33 18 -48 6
c-8 -5 -12 -14 -14 -23c-1 -9 2 -18 7 -25l97 -127c26 -36 67 -57 111 -57l81 -1c29 0 57 8 82 24c4 2 8 1 11 -3c2 -3 1 -8 -3 -11c-27 -17 -58 -26 -90 -26l-81 1c-49 0 -96 23 -124 64l-97 126c-8 11 -11 24 -10 37c2 14 9 26 20 34c22 17 54 12 71 -10l45 -58
c-1 56 -4 112 -10 168l-6 51c-1 12 3 24 10 34c8 9 20 16 32 17c26 3 49 -16 52 -42c3 -14 6 -35 10 -58v100c0 26 22 48 48 48c25 0 46 -20 48 -44c8 7 20 12 32 12c26 0 48 -21 48 -48v-28c9 7 20 12 32 12c26 0 48 -21 48 -48v-175c0 -4 -4 -8 -8 -8s-8 4 -8 8v175
c0 18 -14 32 -32 32s-32 -14 -32 -32v-112c0 -4 -4 -8 -8 -8z" />
    <glyph glyph-name="hands-bubbles" unicode="&#xe05e;" horiz-adv-x="576" 
d="M448 288c0 26 22 48 48 48s48 -22 48 -48s-22 -48 -48 -48s-48 22 -48 48zM496 320c-18 0 -32 -14 -32 -32s14 -32 32 -32s32 14 32 32s-14 32 -32 32zM112 32c26 0 48 -22 48 -48s-22 -48 -48 -48s-48 22 -48 48s22 48 48 48zM112 -48c18 0 32 14 32 32s-14 32 -32 32
s-32 -14 -32 -32s14 -32 32 -32zM504 144c19 0 36 -14 39 -32c3 -12 -1 -24 -8 -33c-8 -10 -19 -15 -31 -15v0c4 -5 6 -10 7 -16c3 -12 -1 -24 -8 -33c-8 -10 -19 -15 -31 -15v0c4 -5 6 -10 7 -16c3 -16 -3 -32 -17 -41c-7 -5 -15 -7 -23 -7h-207c-14 0 -28 2 -42 7
c-4 1 -6 6 -4 11v0c1 3 5 6 9 4c12 -4 24 -6 37 -6h208c15 0 26 13 24 29c-3 11 -13 19 -25 19h-95c-4 0 -8 4 -8 8s4 8 8 8h128c15 0 26 13 24 29c-3 11 -13 19 -25 19h-127c-4 0 -8 4 -8 8s4 8 8 8h160c15 0 26 13 24 29c-3 11 -13 19 -25 19h-159c-4 0 -8 4 -8 8s4 8 8 8
h128c15 0 26 13 24 29c-3 11 -13 19 -25 19h-199l47 17c13 4 20 17 16 30c-3 10 -13 17 -23 17c-2 0 -5 0 -7 -1l-108 -33c-51 -17 -85 -65 -85 -118v-32c0 -5 -3 -8 -7 -8v0c-5 -1 -9 3 -9 7v33c0 60 39 114 96 133l108 33c4 1 8 2 12 2c18 0 33 -11 38 -28
c4 -13 1 -26 -6 -36h127c20 0 37 -14 40 -32c2 -11 0 -23 -7 -32zM63 94c1 -1 1 -3 1 -4c0 -8 -11 -11 -15 -4c-11 20 -17 42 -17 65v113c0 22 19 39 41 39c13 0 25 -6 32 -16l39 121c5 17 21 29 38 29h4c12 -2 22 -8 28 -17c6 17 22 28 39 28h4c17 -2 31 -15 35 -33
c1 -6 1 -13 -1 -19v0c4 1 8 2 13 2h4c12 -1 23 -8 30 -18c6 -10 8 -22 4 -34v0c4 2 9 2 13 2h5c16 -2 29 -13 34 -29c2 -8 2 -16 -1 -24l-7 -22c-2 -6 -10 -7 -14 -2v1c-1 2 -2 4 -1 6l7 23c5 14 -5 29 -20 31h-3c-10 0 -20 -7 -23 -17l-2 -6c-1 -4 -4 -6 -8 -6v0
c-5 1 -8 6 -7 10l12 38c4 14 -5 29 -20 31h-3c-11 0 -20 -7 -23 -17l-22 -70c-1 -3 -3 -5 -5 -6c-7 -2 -12 4 -10 10l32 102c4 14 -5 29 -21 31h-2c-11 0 -20 -7 -24 -18l-44 -141c-1 -3 -4 -5 -8 -5c-5 -1 -9 5 -7 10l35 112c4 14 -5 29 -20 31h-3c-11 0 -20 -8 -23 -18
l-60 -190l-2 50c0 14 -11 24 -24 24v0c-13 0 -25 -10 -25 -23v-113c0 -21 6 -40 15 -57zM432 352c-26 0 -48 22 -48 48s22 48 48 48s48 -22 48 -48s-22 -48 -48 -48zM432 432c-18 0 -32 -14 -32 -32s14 -32 32 -32s32 14 32 32s-14 32 -32 32z" />
    <glyph glyph-name="handshake-simple-slash" unicode="&#xe05f;" horiz-adv-x="640" 
d="M283 368c-20 0 -40 -3 -58 -8l-15 12c23 8 47 12 73 12c4 0 8 -4 8 -8s-4 -8 -8 -8zM358 298c3 3 8 3 11 -1c3 -3 3 -8 0 -11l-24 -22l-13 10zM281 315l-12 10l53 49c7 6 17 10 27 10h8c60 0 116 -23 158 -64h117c4 0 8 -4 8 -8s-4 -8 -8 -8h-123l-3 2
c-39 40 -92 62 -149 62h-8c-6 0 -12 -2 -16 -6zM391 11l16 20l13 -10l-17 -20c-7 -10 -18 -15 -30 -17c-12 -1 -24 3 -33 10l-12 11c-12 -12 -27 -19 -43 -21h-8c-16 0 -32 6 -45 16l-89 80h-135c-4 0 -8 3 -8 8s4 8 8 8h141l93 -84c11 -9 26 -13 41 -12c15 2 28 9 38 21
l5 5l6 -4l18 -16c6 -4 14 -7 21 -6c8 1 15 5 20 11zM632 96c4 0 8 -4 8 -8s-4 -8 -8 -8h-56l-20 16h76zM8 304c-4 0 -8 4 -8 8s4 8 8 8h35l20 -16h-55zM13 446l624 -496c3 -2 4 -8 1 -11c-1 -2 -4 -3 -6 -3s-3 1 -5 2l-624 496c-3 2 -4 8 -1 11c1 2 4 3 6 3s4 -1 5 -2z" />
    <glyph glyph-name="handshake-slash" unicode="&#xe060;" horiz-adv-x="640" 
d="M391 11l16 20l13 -10l-17 -20c-7 -10 -18 -15 -30 -17c-12 -1 -24 3 -33 10l-12 11c-12 -12 -27 -19 -43 -21h-8c-16 0 -32 6 -45 16l-89 80h-41c-3 -18 -19 -32 -38 -32h-56c-4 0 -8 4 -8 8v256c0 5 4 8 8 8h35l21 -16h-48v-240h48c13 0 24 11 24 24v196l16 -12v-176h45
l93 -84c11 -9 26 -13 41 -12c15 2 28 9 38 21l5 5l24 -20c6 -4 14 -7 21 -6c8 1 15 5 20 11zM283 368c-20 0 -40 -3 -58 -8l-15 12c23 8 47 12 73 12c4 0 8 -4 8 -8s-4 -8 -8 -8zM13 446l624 -496c3 -2 4 -8 1 -11c-1 -2 -4 -3 -6 -3s-3 1 -5 2l-624 496c-3 2 -4 8 -1 11
c1 2 4 3 6 3s4 -1 5 -2zM632 320c4 0 8 -4 8 -8v-256c0 -4 -4 -8 -8 -8h-15l-20 16h27v240h-72v-204l-16 12v192h-27l-3 2c-39 40 -92 62 -149 62h-8c-6 0 -12 -2 -16 -6l-52 -47l-12 10l53 49c7 6 17 10 27 10h8c60 0 116 -23 158 -64h117zM369 297c3 -3 3 -8 0 -11
l-24 -22l-13 10c8 7 16 15 26 24c3 3 8 3 11 -1z" />
    <glyph glyph-name="head-side-cough" unicode="&#xe061;" horiz-adv-x="640" 
d="M608 144c-9 0 -16 7 -16 16s7 16 16 16s16 -7 16 -16s-7 -16 -16 -16zM608 80c9 0 16 -7 16 -16s-7 -16 -16 -16s-16 7 -16 16s7 16 16 16zM608 -16c9 0 16 -7 16 -16s-7 -16 -16 -16s-16 7 -16 16s7 16 16 16zM544 32c9 0 16 -7 16 -16s-7 -16 -16 -16s-16 7 -16 16
s7 16 16 16zM544 128c9 0 16 -7 16 -16s-7 -16 -16 -16s-16 7 -16 16s7 16 16 16zM480 80c9 0 16 -7 16 -16s-7 -16 -16 -16s-16 7 -16 16s7 16 16 16zM368 256c0 -22 -18 -40 -40 -40s-40 18 -40 40s18 40 40 40s40 -18 40 -40zM304 256c0 -13 11 -24 24 -24s24 11 24 24
s-11 24 -24 24s-24 -11 -24 -24zM477 173c10 -21 -6 -45 -29 -45h-32v-16c0 -9 -7 -16 -16 -16h-80c-19 0 -34 -16 -32 -35c2 -17 17 -29 33 -29h76c11 0 19 -11 15 -21c-8 -25 -32 -43 -60 -43h-64v-24c0 -4 -4 -8 -8 -8v0c-4 0 -8 4 -8 8v40h80c21 0 39 13 45 32h-77
c-29 0 -51 25 -48 54c3 25 25 42 50 42h78v32h48c6 0 10 3 13 7c3 5 3 11 1 17c-8 18 -17 45 -27 73c-14 42 -30 90 -44 110c-36 51 -95 81 -157 81h-42c-97 0 -176 -79 -176 -176c0 -50 21 -97 59 -131l5 -5v-176c0 -4 -4 -8 -8 -8v0c-4 0 -8 4 -8 8v169
c-41 37 -66 91 -64 150c4 104 92 185 196 185h38c68 0 132 -34 170 -88c25 -35 52 -140 73 -187z" />
    <glyph glyph-name="head-side-cough-slash" unicode="&#xe062;" horiz-adv-x="640" 
d="M560 112c0 -6 -3 -10 -7 -13l-24 19c2 6 8 10 15 10c9 0 16 -7 16 -16zM608 80c9 0 16 -7 16 -16c0 -6 -4 -12 -9 -14l-22 17c1 7 7 13 15 13zM608 144c-9 0 -16 7 -16 16s7 16 16 16s16 -7 16 -16s-7 -16 -16 -16zM16 256c0 -50 21 -97 59 -131l5 -5v-176
c0 -4 -4 -8 -8 -8v0c-4 0 -8 4 -8 8v169c-41 37 -66 91 -64 150c1 27 8 53 19 76l13 -10c-10 -22 -16 -47 -16 -73zM637 -50c3 -2 4 -8 1 -11c-1 -2 -4 -3 -6 -3s-3 1 -5 2l-624 496c-3 2 -4 8 -1 11c1 2 4 3 6 3s4 -1 5 -2zM192 432c-17 0 -34 -3 -49 -7l-14 11
c21 8 44 12 67 12h38c68 0 132 -34 170 -88c25 -35 52 -140 73 -187c3 -5 3 -11 3 -16l-20 16c-8 18 -16 42 -25 68c-14 42 -30 90 -44 110c-36 51 -95 81 -157 81h-42zM397 32c11 0 19 -11 15 -21c-8 -25 -32 -43 -60 -43h-64v-24c0 -4 -4 -8 -8 -8v0c-4 0 -8 4 -8 8v40h80
c21 0 39 13 45 32h-77c-29 0 -51 25 -48 54c3 20 18 34 36 40l17 -14h-5c-19 0 -34 -16 -32 -35c2 -17 17 -29 33 -29h76z" />
    <glyph glyph-name="head-side-mask" unicode="&#xe063;" 
d="M320 256c0 22 18 40 40 40s40 -18 40 -40s-18 -40 -40 -40s-40 18 -40 40zM384 256c0 13 -11 24 -24 24s-24 -11 -24 -24s11 -24 24 -24s24 11 24 24zM510 141c2 -2 2 -5 2 -8l-50 -148c-10 -29 -37 -49 -68 -49h-146c-4 0 -8 4 -8 8v190l-218 160c-4 -15 -6 -30 -6 -46
c0 -52 22 -102 61 -137l3 -3v-164c0 -4 -4 -8 -8 -8s-8 4 -8 8v157c-41 38 -64 91 -64 147c0 110 90 200 200 200h58c70 0 136 -34 176 -92c17 -23 33 -69 49 -114c8 -20 15 -39 21 -55c2 -5 -2 -11 -7 -11h-1c-3 0 -6 2 -7 5c-6 16 -13 35 -21 56c-15 42 -32 89 -47 110
c-37 53 -98 85 -163 85h-58c-80 0 -147 -51 -173 -122l226 -166h251c3 0 5 -1 6 -3zM474 72l19 56h-237v-176h138c24 0 45 15 53 38l1 2h-128c-4 0 -8 4 -8 8s4 8 8 8h133l16 48h-149c-4 0 -8 4 -8 8s4 8 8 8h154z" />
    <glyph glyph-name="head-side-virus" unicode="&#xe064;" 
d="M509 176c5 -12 4 -27 -4 -38c-7 -11 -19 -18 -33 -18h-24v-48c0 -40 -32 -72 -72 -72h-56v-56c0 -4 -4 -8 -8 -8s-8 4 -8 8v72h72c31 0 56 25 56 56v64h40c8 0 16 4 20 11c5 7 5 15 2 23c-8 17 -17 41 -26 67c-15 42 -32 89 -47 110c-37 53 -98 85 -163 85h-58
c-101 0 -184 -83 -184 -184c0 -52 22 -102 61 -137l3 -3v-164c0 -4 -4 -8 -8 -8s-8 4 -8 8v157c-41 38 -64 91 -64 147c0 110 90 200 200 200h58c70 0 136 -34 177 -92c16 -23 32 -69 48 -114c9 -25 18 -49 26 -66zM208 272c9 0 16 -7 16 -16s-7 -16 -16 -16s-16 7 -16 16
s7 16 16 16zM272 208c9 0 16 -7 16 -16s-7 -16 -16 -16s-16 7 -16 16s7 16 16 16zM314 117l-9 8c-8 8 -19 8 -26 5s-15 -10 -15 -22v-12c0 -13 -11 -24 -24 -24s-24 11 -24 24v12c0 12 -8 19 -15 22s-18 3 -26 -5l-9 -8c-9 -10 -24 -10 -33 0c-10 9 -10 24 0 33l8 9
c8 8 8 19 5 26s-10 15 -22 15h-12c-13 0 -24 11 -24 24s11 24 24 24h12c12 0 19 8 22 15s3 18 -5 26l-8 9c-10 9 -10 24 0 33c9 10 24 10 33 0l9 -8c8 -8 19 -8 26 -5s15 10 15 22v12c0 13 11 24 24 24s24 -11 24 -24v-12c0 -12 8 -19 15 -22s18 -3 26 5l9 8
c9 10 24 10 34 0c9 -9 9 -24 0 -33l-9 -9c-8 -8 -8 -19 -5 -26s10 -15 22 -15h12c13 0 24 -11 24 -24s-11 -24 -24 -24h-12c-12 0 -19 -8 -22 -15s-3 -18 5 -26l9 -9c9 -9 9 -24 0 -33c-10 -10 -25 -10 -34 0zM273 145c15 6 32 3 43 -9l9 -8c3 -3 8 -3 11 0s3 8 0 11l-8 9
c-12 11 -15 28 -9 43c6 16 20 25 37 25h12c4 0 8 4 8 8s-4 8 -8 8h-12c-17 0 -31 9 -37 25c-6 15 -3 32 9 43l8 9c3 3 3 8 0 11s-8 3 -11 0l-9 -8c-11 -12 -28 -15 -43 -9c-16 6 -25 20 -25 37v12c0 4 -4 8 -8 8s-8 -4 -8 -8v-12c0 -17 -9 -31 -25 -37c-15 -6 -32 -3 -43 9
l-9 8c-3 3 -8 3 -11 0s-3 -8 0 -11l8 -9c12 -11 15 -28 9 -43c-6 -16 -20 -25 -37 -25h-12c-4 0 -8 -4 -8 -8s4 -8 8 -8h12c17 0 31 -9 37 -25c6 -15 3 -32 -9 -43l-8 -9c-3 -3 -3 -8 0 -11s8 -3 11 0l9 8c7 8 17 12 28 12c5 0 10 -1 15 -3c16 -6 25 -20 25 -37v-12
c0 -4 4 -8 8 -8s8 4 8 8v12c0 17 9 31 25 37z" />
    <glyph glyph-name="house-user" unicode="&#xe065;" horiz-adv-x="576" 
d="M573 198c4 -3 4 -8 1 -11c-2 -2 -4 -3 -6 -3s-4 1 -5 2l-51 44v-230c0 -35 -29 -64 -64 -64h-320c-35 0 -64 29 -64 64v230l-51 -44c-3 -3 -8 -3 -11 1c-3 3 -3 8 1 11l280 248c3 3 7 3 10 0l91 -80v34c0 9 7 16 16 16h96c9 0 16 -7 16 -16v-148zM496 0v244l-208 185
l-208 -185v-244c0 -26 21 -48 48 -48h320c26 0 48 22 48 48zM496 266v134h-96v-49zM224 192c0 35 29 64 64 64s64 -29 64 -64s-29 -64 -64 -64s-64 29 -64 64zM336 192c0 26 -22 48 -48 48s-48 -22 -48 -48s22 -48 48 -48s48 22 48 48zM256 96h64c44 0 80 -36 80 -80
c0 -9 -7 -16 -16 -16h-192c-9 0 -16 7 -16 16c0 44 36 80 80 80zM384 16c0 35 -29 64 -64 64h-64c-35 0 -64 -29 -64 -64h192z" />
    <glyph glyph-name="house-laptop" unicode="&#xe066;" horiz-adv-x="640" 
d="M272 38c0 -4 -4 -8 -8 -8h-160c-22 0 -40 18 -40 40v199l-51 -45c-1 -1 -3 -2 -5 -2s-4 1 -6 3c-3 3 -3 8 1 11l232 208c3 3 7 3 10 0l232 -208c4 -3 4 -8 1 -11c-3 -4 -8 -4 -11 -1l-51 45v-39c0 -4 -4 -8 -8 -8s-8 4 -8 8v54l-160 143l-160 -143v-214
c0 -13 11 -24 24 -24h160c4 0 8 -4 8 -8zM632 -2c4 0 8 -4 8 -8v-16c0 -22 -18 -40 -40 -40h-304c-22 0 -40 18 -40 40v16c0 4 4 8 8 8h40v152c0 22 18 40 40 40h208c22 0 40 -18 40 -40v-152h40zM320 150v-152h256v152c0 13 -11 24 -24 24h-208c-13 0 -24 -11 -24 -24z
M624 -26v8h-352v-8c0 -13 11 -24 24 -24h304c13 0 24 11 24 24zM288 206c-4 0 -8 4 -8 8v24c0 4 -4 8 -8 8h-64c-4 0 -8 -4 -8 -8v-64c0 -4 4 -8 8 -8h56c4 0 8 -4 8 -8v0c0 -4 -4 -8 -8 -8h-56c-13 0 -24 11 -24 24v64c0 13 11 24 24 24h64c13 0 24 -11 24 -24v-24
c0 -4 -4 -8 -8 -8z" />
    <glyph glyph-name="lungs-virus" unicode="&#xe067;" horiz-adv-x="640" 
d="M433 60c6 -6 9 -13 9 -22s-3 -17 -9 -23s-14 -9 -23 -9c-8 0 -16 3 -22 9l-9 8c-4 4 -8 5 -11 5c-8 0 -16 -6 -16 -16v-12c0 -18 -14 -32 -32 -32s-32 14 -32 32v12c0 10 -8 16 -16 16c-3 0 -7 -1 -11 -5l-9 -8c-6 -6 -14 -10 -22 -10c-9 0 -17 4 -23 10s-9 13 -9 22
s3 17 9 23l8 9c7 7 5 15 4 17s-5 10 -15 10h-12c-18 0 -32 14 -32 32s14 32 32 32h12c10 0 14 8 15 10s3 10 -4 17l-8 9c-13 12 -13 33 0 45c6 6 14 10 22 10c9 0 17 -4 23 -10l9 -8c4 -4 8 -5 11 -5c8 0 16 6 16 16v12c0 18 14 32 32 32s32 -14 32 -32v-12
c0 -10 8 -16 16 -16c3 0 7 1 11 5l9 8c6 6 14 10 22 10c9 0 17 -4 23 -10c13 -12 13 -33 0 -45l-8 -9c-7 -7 -5 -15 -4 -17s5 -10 15 -10h12c18 0 32 -14 32 -32s-14 -32 -32 -32h-12c-10 0 -14 -8 -15 -10s-3 -10 4 -17zM422 26c6 6 6 17 0 23l-9 8c-20 21 -6 55 23 55h12
c9 0 16 7 16 16s-7 16 -16 16h-12c-29 0 -43 34 -23 55l9 8c6 6 6 17 0 23c-3 3 -6 4 -11 4s-9 -1 -12 -4l-8 -9c-7 -6 -15 -9 -23 -9c-16 0 -32 13 -32 32v12c0 9 -7 16 -16 16s-16 -7 -16 -16v-12c0 -19 -16 -32 -32 -32c-8 0 -16 3 -23 9l-8 9c-3 3 -8 5 -12 5
s-8 -2 -11 -5c-6 -6 -6 -17 0 -23l9 -8c20 -21 6 -55 -23 -55h-12c-9 0 -16 -7 -16 -16s7 -16 16 -16h12c29 0 43 -34 23 -55l-9 -8c-6 -6 -6 -17 0 -23c3 -3 6 -4 11 -4s9 1 12 4l8 9c7 6 15 9 23 9c16 0 32 -13 32 -32v-12c0 -9 7 -16 16 -16s16 7 16 16v12
c0 19 16 32 32 32c8 0 16 -3 23 -9l8 -9c3 -3 6 -4 11 -4s9 1 12 4zM288 176c9 0 16 -7 16 -16s-7 -16 -16 -16s-16 7 -16 16s7 16 16 16zM352 112c9 0 16 -7 16 -16s-7 -16 -16 -16s-16 7 -16 16s7 16 16 16zM192 -25c4 2 9 0 11 -4s0 -8 -4 -10c-5 -3 -10 -4 -16 -6
l-55 -15c-10 -3 -19 -4 -28 -4c-22 0 -44 7 -62 21c-24 18 -38 46 -38 76c0 10 1 20 4 30c20 79 53 155 96 225l5 8c19 30 35 56 77 56c41 0 74 -32 74 -71c0 -5 -4 -8 -8 -8s-8 3 -8 8c0 30 -26 55 -58 55c-33 0 -45 -19 -63 -49l-5 -8c-43 -68 -75 -142 -95 -220
c-2 -8 -3 -17 -3 -26c0 -25 12 -48 32 -63c21 -17 49 -22 75 -15l56 15c5 2 9 3 13 5zM320 321c-4 0 -8 4 -8 8v111c0 4 4 8 8 8s8 -4 8 -8v-111c0 -4 -4 -8 -8 -8zM636 63c3 -10 4 -20 4 -30c0 -30 -14 -58 -38 -76c-18 -14 -40 -21 -62 -21c-9 0 -18 1 -28 4l-55 15
c-6 2 -11 3 -16 6c-4 2 -6 6 -4 10s7 6 11 4s8 -3 13 -4l56 -16c26 -7 54 -2 75 15c20 15 32 38 32 63c0 9 -1 18 -3 26c-20 78 -52 152 -95 220l-5 8c-18 30 -30 49 -63 49c-32 0 -58 -25 -58 -55c0 -5 -4 -8 -8 -8s-8 3 -8 8c0 39 33 71 74 71c42 0 58 -26 77 -56l5 -8
c43 -70 76 -146 96 -225z" />
    <glyph glyph-name="people-arrows-left-right" unicode="&#xe068;" horiz-adv-x="576" 
d="M480 320c-35 0 -64 29 -64 64s29 64 64 64s64 -29 64 -64s-29 -64 -64 -64zM480 432c-26 0 -48 -22 -48 -48s22 -48 48 -48s48 22 48 48s-22 48 -48 48zM504 288c40 0 72 -32 72 -72v-88c0 -19 -14 -35 -32 -39v-113c0 -22 -18 -40 -40 -40h-48c-22 0 -40 18 -40 40v88
c0 4 4 8 8 8s8 -4 8 -8v-88c0 -13 11 -24 24 -24h48c13 0 24 11 24 24v120c0 4 4 8 8 8c13 0 24 11 24 24v88c0 31 -25 56 -56 56h-48c-17 0 -33 -8 -44 -21c-2 -3 -8 -4 -11 -1s-4 8 -1 11c14 17 34 27 56 27h48zM445 150c3 -2 5 -8 0 -12l-80 -72c-3 -3 -8 -3 -11 1
c-3 3 -3 8 1 11l64 58h-262l64 -58c4 -3 4 -8 1 -11c-3 -4 -8 -4 -11 -1l-80 72c-3 2 -5 8 0 12l80 72c3 3 8 3 11 -1c3 -3 3 -8 -1 -11l-64 -58h262l-64 58c-4 3 -4 8 -1 11c3 4 8 4 11 1zM96 320c-35 0 -64 29 -64 64s29 64 64 64s64 -29 64 -64s-29 -64 -64 -64zM96 432
c-26 0 -48 -22 -48 -48s22 -48 48 -48s48 22 48 48s-22 48 -48 48zM152 72c4 0 8 -4 8 -8v-88c0 -22 -18 -40 -40 -40h-48c-22 0 -40 18 -40 40v113c-18 4 -32 20 -32 39v88c0 40 32 72 72 72h48c22 0 42 -10 56 -27c3 -3 2 -8 -1 -11s-9 -2 -11 1c-11 13 -27 21 -44 21h-48
c-31 0 -56 -25 -56 -56v-88c0 -13 11 -24 24 -24c4 0 8 -4 8 -8v-120c0 -13 11 -24 24 -24h48c13 0 24 11 24 24v88c0 4 4 8 8 8z" />
    <glyph glyph-name="plane-slash" unicode="&#xe069;" horiz-adv-x="640" 
d="M215 367l-17 61c-3 10 5 20 15 20h66c5 0 11 -4 14 -8l105 -184h114c35 0 96 -29 96 -64c0 -34 -56 -62 -92 -64l-20 16h16c32 0 80 26 80 48s-48 48 -80 48h-124l-4 8l-105 184h-66l24 -82zM279 -48l71 124l12 -10l-69 -122c-3 -5 -9 -8 -14 -8h-66c-10 0 -18 10 -15 20
l49 172h-103l-43 -58c-3 -4 -8 -6 -13 -6h-40c-10 0 -18 10 -15 20l31 108l-32 108c-2 9 4 17 12 19l19 -15h-15l31 -108l2 -4l-2 -4l-31 -109l40 1l43 58l5 6h129l2 -2l-5 -18l-49 -172h66zM637 -50c3 -2 4 -8 1 -11c-1 -2 -4 -3 -6 -3s-3 1 -5 2l-624 496c-3 2 -4 8 -1 11
c1 2 4 3 6 3s4 -1 5 -2z" />
    <glyph glyph-name="pump-medical" unicode="&#xe06a;" horiz-adv-x="384" 
d="M236 288c33 0 60 -25 63 -58l21 -224c3 -38 -26 -70 -64 -70h-192c-38 0 -67 32 -64 70l21 224c3 33 30 58 63 58h152zM291 -32c10 10 14 23 13 36l-21 224c-2 25 -22 44 -47 44h-152c-25 0 -45 -19 -47 -44l-21 -224c-1 -13 3 -26 13 -36c9 -10 21 -16 35 -16h192
c14 0 26 6 35 16zM366 334c3 -3 3 -9 0 -12c-2 -1 -4 -2 -6 -2s-4 1 -6 2l-46 47c-5 4 -11 7 -17 7h-67v-48c0 -4 -4 -8 -8 -8s-8 4 -8 8v88c0 9 -7 16 -16 16h-64c-9 0 -16 -7 -16 -16v-88c0 -4 -4 -8 -8 -8s-8 4 -8 8v88c0 18 14 32 32 32h64c18 0 32 -14 32 -32v-24h67
c10 0 20 -4 28 -12zM232 168c9 0 16 -7 16 -16v-48c0 -9 -7 -16 -16 -16h-32v-32c0 -9 -7 -16 -16 -16h-48c-9 0 -16 7 -16 16v32h-32c-9 0 -16 7 -16 16v48c0 9 7 16 16 16h32v32c0 9 7 16 16 16h48c9 0 16 -7 16 -16v-32h32zM232 104v48h-48v48h-48v-48h-48v-48h48v-48h48
v48h48z" />
    <glyph glyph-name="pump-soap" unicode="&#xe06b;" horiz-adv-x="384" 
d="M145 193c7 9 23 9 30 0c26 -33 57 -77 57 -102c0 -37 -32 -67 -72 -67s-72 30 -72 67c0 25 31 69 57 102zM160 40c31 0 56 23 56 51c0 15 -20 50 -54 92c0 1 -2 1 -2 1s-2 0 -2 -1c-34 -42 -54 -77 -54 -92c0 -28 25 -51 56 -51zM236 288c33 0 60 -25 63 -58l21 -224
c3 -38 -26 -70 -64 -70h-192c-38 0 -67 32 -64 70l21 224c3 33 30 58 63 58h152zM291 -32c10 10 14 23 13 36l-21 224c-2 25 -22 44 -47 44h-152c-25 0 -45 -19 -47 -44l-21 -224c-1 -13 3 -26 13 -36c9 -10 21 -16 35 -16h192c14 0 26 6 35 16zM366 334c3 -3 3 -9 0 -12
c-2 -1 -4 -2 -6 -2s-4 1 -6 2l-46 47c-5 4 -11 7 -17 7h-67v-48c0 -4 -4 -8 -8 -8s-8 4 -8 8v88c0 9 -7 16 -16 16h-64c-9 0 -16 -7 -16 -16v-88c0 -4 -4 -8 -8 -8s-8 4 -8 8v88c0 18 14 32 32 32h64c18 0 32 -14 32 -32v-24h67c10 0 20 -4 28 -12z" />
    <glyph glyph-name="shield-virus" unicode="&#xe06c;" 
d="M466 364c18 -7 30 -25 30 -44c0 -221 -136 -345 -222 -380c-5 -3 -12 -4 -18 -4s-13 1 -18 4c-108 44 -222 182 -222 380c0 19 12 37 30 44l192 80c4 2 13 4 18 4s14 -2 18 -4zM268 -46c49 21 99 64 136 116c50 69 76 156 76 250c0 13 -8 25 -20 30l-192 80
c-3 1 -9 2 -12 2s-9 -1 -12 -2l-192 -80c-12 -5 -20 -17 -20 -30c0 -191 110 -323 212 -366c4 -1 8 -2 12 -2s8 1 12 2zM288 192c9 0 16 -7 16 -16s-7 -16 -16 -16s-16 7 -16 16s7 16 16 16zM224 256c9 0 16 -7 16 -16s-7 -16 -16 -16s-16 7 -16 16s7 16 16 16zM384 240
c18 0 32 -14 32 -32s-14 -32 -32 -32h-12c-10 0 -14 -8 -15 -10s-3 -10 4 -17l8 -9c6 -6 9 -13 9 -22s-3 -17 -9 -23s-14 -9 -23 -9c-8 0 -16 3 -22 9l-9 8c-4 4 -8 5 -11 5c-8 0 -16 -6 -16 -16v-12c0 -18 -14 -32 -32 -32s-32 14 -32 32v12c0 10 -8 16 -16 16
c-3 0 -7 -1 -11 -5l-9 -8c-6 -6 -14 -9 -23 -9c-8 0 -16 3 -22 9s-10 15 -10 23s4 16 10 22l8 9c7 7 5 15 4 17s-5 10 -15 10h-12c-18 0 -32 14 -32 32s14 32 32 32h12c10 0 14 8 15 10s3 10 -4 17l-8 9c-13 12 -13 33 0 45c6 6 14 10 22 10c9 0 17 -4 23 -10l9 -8
c4 -4 8 -5 11 -5c8 0 16 6 16 16v12c0 18 14 32 32 32s32 -14 32 -32v-12c0 -10 8 -16 16 -16c3 0 7 1 11 5l9 8c6 6 14 10 22 10c9 0 17 -4 23 -10c13 -12 13 -33 0 -45l-8 -9c-7 -7 -5 -15 -4 -17s5 -10 15 -10h12zM384 192c9 0 16 7 16 16s-7 16 -16 16h-12
c-29 0 -43 34 -23 55l9 8c6 6 6 17 0 23c-3 3 -6 4 -11 4s-9 -1 -12 -4l-8 -9c-7 -6 -15 -9 -23 -9c-16 0 -32 13 -32 32v12c0 9 -7 16 -16 16s-16 -7 -16 -16v-12c0 -19 -16 -32 -32 -32c-8 0 -16 3 -23 9l-8 9c-3 3 -8 5 -12 5s-8 -2 -11 -5c-6 -6 -6 -17 0 -23l9 -8
c20 -21 6 -55 -23 -55h-12c-9 0 -16 -7 -16 -16s7 -16 16 -16h12c29 0 43 -34 23 -55l-9 -8c-6 -6 -6 -17 0 -23c3 -3 6 -4 11 -4s9 1 12 4l8 9c7 6 15 9 23 9c16 0 32 -13 32 -32v-12c0 -9 7 -16 16 -16s16 7 16 16v12c0 19 16 32 32 32c8 0 16 -3 23 -9l8 -9
c3 -3 6 -4 11 -4s9 1 12 4c6 6 6 17 0 23l-9 8c-20 21 -6 55 23 55h12z" />
    <glyph glyph-name="sink" unicode="&#xe06d;" 
d="M480 160c18 0 32 -14 32 -32s-14 -32 -32 -32h-448c-18 0 -32 14 -32 32s14 32 32 32h96v24c0 13 -11 24 -24 24h-64c-4 0 -8 4 -8 8s4 8 8 8h64c22 0 40 -18 40 -40v-24h104v216c0 40 32 72 72 72s72 -32 72 -72v-48c0 -4 -4 -8 -8 -8s-8 4 -8 8v48c0 31 -25 56 -56 56
s-56 -25 -56 -56v-216h104v24c0 22 18 40 40 40h64c4 0 8 -4 8 -8s-4 -8 -8 -8h-64c-13 0 -24 -11 -24 -24v-24h96zM480 112c9 0 16 7 16 16s-7 16 -16 16h-448c-9 0 -16 -7 -16 -16s7 -16 16 -16h448zM472 72c4 0 8 -4 8 -8v-24c0 -57 -47 -104 -104 -104h-240
c-57 0 -104 47 -104 104v24c0 4 4 8 8 8s8 -4 8 -8v-24c0 -49 39 -88 88 -88h240c49 0 88 39 88 88v24c0 4 4 8 8 8z" />
    <glyph glyph-name="soap" unicode="&#xe06e;" 
d="M408 256c57 0 104 -47 104 -104v-112c0 -57 -47 -104 -104 -104h-304c-57 0 -104 47 -104 104v112c0 57 47 104 104 104h120c4 0 8 -4 8 -8s-4 -8 -8 -8h-120c-49 0 -88 -39 -88 -88v-112c0 -49 39 -88 88 -88h304c49 0 88 39 88 88v112c0 49 -39 88 -88 88
c-4 0 -8 4 -8 8s4 8 8 8zM160 176h192c44 0 80 -36 80 -80s-36 -80 -80 -80h-192c-44 0 -80 36 -80 80s36 80 80 80zM416 96c0 35 -29 64 -64 64h-192c-35 0 -64 -29 -64 -64s29 -64 64 -64h192c35 0 64 29 64 64zM320 208c-35 0 -64 29 -64 64s29 64 64 64s64 -29 64 -64
s-29 -64 -64 -64zM320 320c-26 0 -48 -22 -48 -48s22 -48 48 -48s48 22 48 48s-22 48 -48 48zM208 352c-26 0 -48 22 -48 48s22 48 48 48s48 -22 48 -48s-22 -48 -48 -48zM208 432c-18 0 -32 -14 -32 -32s14 -32 32 -32s32 14 32 32s-14 32 -32 32zM384 384
c-18 0 -32 14 -32 32s14 32 32 32s32 -14 32 -32s-14 -32 -32 -32zM384 432c-9 0 -16 -7 -16 -16s7 -16 16 -16s16 7 16 16s-7 16 -16 16z" />
    <glyph glyph-name="stopwatch-20" unicode="&#xe06f;" horiz-adv-x="448" 
d="M384 277c30 -36 48 -83 48 -133c0 -115 -93 -208 -208 -208s-208 93 -208 208c0 112 89 203 200 208v80h-56c-4 0 -8 4 -8 8s4 8 8 8h128c4 0 8 -4 8 -8s-4 -8 -8 -8h-56v-80c55 -2 105 -26 141 -63l37 37c3 3 9 3 12 0s3 -9 0 -12zM224 -48c106 0 192 86 192 192
s-86 192 -192 192s-192 -86 -192 -192s86 -192 192 -192zM197 174l-41 -53c-17 -21 -26 -47 -28 -73h72c4 0 8 -4 8 -8s-4 -8 -8 -8h-80c-4 0 -8 4 -8 8c0 33 11 65 31 91l41 53c5 7 8 15 8 24c0 18 -14 32 -32 32s-32 -14 -32 -32v-8c0 -4 -4 -8 -8 -8s-8 4 -8 8v8
c0 26 22 48 48 48s48 -22 48 -48c0 -12 -4 -24 -11 -34zM288 256c26 0 48 -22 48 -48v-128c0 -26 -22 -48 -48 -48s-48 22 -48 48v128c0 26 22 48 48 48zM320 80v128c0 18 -14 32 -32 32s-32 -14 -32 -32v-128c0 -18 14 -32 32 -32s32 14 32 32z" />
    <glyph glyph-name="shop-slash" unicode="&#xe070;" horiz-adv-x="640" 
d="M368 -16v78l16 -13v-65c0 -27 -21 -48 -48 -48h-224c-26 0 -48 22 -48 48v272h-32c-26 0 -41 29 -27 50l20 29l12 -10l-18 -28c-5 -7 -2 -14 -1 -17c1 -2 5 -8 14 -8h72l20 -16h-44v-272c0 -18 14 -32 32 -32h224c18 0 32 14 32 32zM496 216c0 4 4 8 8 8s8 -4 8 -8v-85
l-16 13v72zM523 432h-389l-20 16h3h406c10 0 20 -5 26 -14l86 -128c14 -21 -2 -50 -27 -50h-32v-175l-16 12v163h-205l-20 16h273c9 0 13 6 14 8c1 3 4 10 -1 17l-85 128c-3 4 -8 7 -13 7zM13 446l624 -496c3 -2 4 -8 1 -11c-1 -2 -4 -3 -6 -3s-3 1 -5 2l-624 496
c-3 2 -4 8 -1 11c1 2 4 3 6 3s4 -1 5 -2zM136 224c4 0 8 -4 8 -8v-136h160v33l16 -13v-28c0 -4 -4 -8 -8 -8h-176c-4 0 -8 4 -8 8v144c0 4 4 8 8 8z" />
    </font>
</defs>
</svg>
